Loading...
Error

Мост слишком далеко / A Bridge Too Far (Ричард Аттенборо) [1977 г., боевик, драма, военный, история, BDRip]

Статистика раздачи
Размер:  2,9 GB   |    Зарегистрирован:  4 года 5 месяцев   |    Скачан:  4 раза
Сидов:  1  |  0 KB/s  ]   Личеров:  0  |  0 KB/s  ]

* - сиды/пиры с внешних источников

   
 
Автор Сообщение

garry Пол:Муж

01-Июл-2012 12:53

Мост слишком далеко / A Bridge Too Far


Год выпуска: 1977
Жанр: боевик, драма, военный, история
Страна: США , Великобритания
Режиссер: Ричард Аттенборо
В ролях: Дирк Богард, Джеймс Каан, Майкл Кейн, Шон Коннери, Эдвард Фокс, Эллиот Гулд, Джин Хэкмен, Энтони Хопкинс, Харди Крюгер, Райан О’Нил
Сюжет фильма:
В сентябре 1944 года, после успешного вторжения в Нормандию, союзники готовят тайную операцию Маркет Гарден: дерзкий план, призванный быстро положить конец Второй мировой войне путем воздушного налета на Германию и уничтожения всех военных заводов Рейха. Однако, сочетание неудачной боевой тактики, ошибочных разведданных, невезения и плохой погоды привело к катастрофе.

  • Мировая премьера: 15 июня 1977


Качество видео: BDRip

Продолжительность: 02:56:12

Формат: avi
Видео: XviD, 720x304, 1899 kbps
Аудио: русский, многоголосый закадровый (профессиональный, 20th Centuty Fox), AC3 5.1, 448 kbps

Код:

General
Complete name                    : D:\Video\Movies\Most.Slishkom.Daleko.1977.Rus.BDRip.XviD.AC3.-HELLYWOOD.avi
Format                           : AVI
Format/Info                      : Audio Video Interleave
Format profile                   : OpenDML
File size                        : 2.90 GiB
Duration                         : 2h 56mn
Overall bit rate                 : 2 358 Kbps
Movie name                       : Most.Slishkom.Daleko.1977.Rus.BDRip.XviD.AC3.-HELLYWOOD
Director                         : Beesmark
Writing application              : VirtualDubMod 1.5.10.2 (build 2540/release)
Copyright                        : http://forum.hellywood.ru/

Video
ID                               : 0
Format                           : MPEG-4 Visual
Format profile                   : Streaming Video@L1
Format settings, BVOP            : Yes
Format settings, QPel            : No
Format settings, GMC             : No warppoints
Format settings, Matrix          : Custom
Codec ID                         : XVID
Codec ID/Hint                    : XviD
Duration                         : 2h 56mn
Bit rate                         : 1 900 Kbps
Width                            : 720 pixels
Height                           : 304 pixels
Display aspect ratio             : 2.35
Frame rate                       : 23.976 fps
Resolution                       : 24 bits
Colorimetry                      : 4:2:0
Scan type                        : Progressive
Bits/(Pixel*Frame)               : 0.362
Stream size                      : 2.34 GiB (81%)
Writing library                  : XviD 65

Audio
ID                               : 1
Format                           : AC-3
Format/Info                      : Audio Coding 3
Codec ID                         : 2000
Duration                         : 2h 56mn
Bit rate mode                    : Constant
Bit rate                         : 448 Kbps
Channel(s)                       : 6 channels
Channel positions                : Front: L C R, Surround: L R, LFE
Sampling rate                    : 48.0 KHz
Stream size                      : 565 MiB (19%)
Alignment                        : Split accross interleaves
Interleave, duration             : 42 ms (1.00 video frame)
Interleave, preload duration     : 500 ms

Семпл: http://multi-up.com/726793

Релиз группы:
picpicpic
Для увеличения картинки щелкните мышкой по превью

Этот торрент недоступен для скачивания без регистрации, однако доступен по публичной magnet-ссылке (источники с публичных трекеров). Перед использованием ссылки прочтите, пожалуйста Пользовательское соглашение, а также как можно дольше оставайтесь на раздаче! Для того, чтобы скачать сам торрент-файл (который видит больше источников), а также для того, чтобы поблагодарить релизера, вам необходимо зарегистрироваться. Если регистрироваться лень - вы можете также попробовать скачать релиз по нашим партнерским ссылкам ниже.

[underverse.su].t18575.torrent
Трекер: Зарегистрирован   [ 01.07.2012 12:53 ]  

Статус: проверено (by garry at 01.07.2012 12:54)
Поблагодарили: пока никто не поблагодарил...
Тип торрента: публичный - доступные источники с открытых трекеров: 
Размер: 2,9 GB (занимает 2/3 DVDR, для записи нужно 1 болванка DVDR/RW)
 
 

Яндекс.Метрика powered by Sphinx


В Н И М А Н И Е
Сайт не распространяет и не хранит электронные версии произведений, а лишь бесплатно и без коммерческой выгоды (не требуя взамен платы,
SMS и т.д.) предоставляет доступ к создаваемому пользователями каталогу ссылок на торрент-файлы, которые содержат только списки хеш-сумм.
Убедительная просьба с жалобами обращаться напрямую к пользователю, разместившему торрент файл.

Вверх