Loading...
Error

Железный смерч (ТВ) / Metal Tornado (Гордон Янг) [2011 г., фантастика, HDRip]

Статистика раздачи
Размер:  1,46 GB   |    Зарегистрирован:  5 лет 2 месяца   |    Скачан:  14 раз

Полного источника не было: 1 год

Сидов:  0  |  0 KB/s  ]   Личеров:  0  |  0 KB/s  ]

* - сиды/пиры с внешних источников

   
 
Автор Сообщение

eXtatik Пол:Муж

01-Июл-2012 09:10

Железный смерч (ТВ) / Metal Tornado


Год выпуска: 2011
Жанр: фантастика
Страна: Канада
Режиссер: Гордон Янг
В ролях: Лу Дайэмонд Филлипс, Николь де Бур, Стивен МакДональд, Грег Эвиган, Фрэнк Скорпион, Софи Гендрон, Джон МакЛаренАлексис Мейтленд, Роб Стюарт, Джон МакЛарен
Сюжет фильма:
В результате чудовищной вспышки на Солнце, Гелиос новая экспериментальная установка по получению энергии дает сбой, и излишки солнечной плазмы образуют магнитный вихрь невероятной силы. Железный смерч начинает двигаться в сторону Филадельфии, поглощая все металлическое на своем пути и неся гибель всему живому.

Астрофизики Майкл Эдвардс и Ребекка Адлер пытаются понять природу смерча и предупредить руководство эксперимента о смертельной опасности. Но руководитель проекта Джонатан Кейн, игнорируя предупреждения, активирует другие станции в Австралии, Японии и Франции. Теперь гибель грозит всей планете

  • Мировая премьера: 22 июля 2011


Качество видео: HDRip

Продолжительность: 01:30:04

Формат: avi
Видео: XviD, 720x400, 1923 kbps
Аудио: Профессиональный (многоголосый закадровый)[лицензия], AC3 5.1, 384 kbps

Код:

General
Complete name                    : D:\Фильмы\Железный смерч.avi
Format                           : AVI
Format/Info                      : Audio Video Interleave
File size                        : 1.46 GiB
Duration                         : 1h 30mn
Overall bit rate                 : 2 317 Kbps
Movie name                       : Zheleznyj.smerch.2011.P.HDRip.IRONCLUB
Director                         : IRONCLUB
Genre                            : Sci-Fi / Thriller / Horror
Writing application              : VirtualDubMod 1.5.10.2 (build 2540/release)
Original source form/Name        : Movie
Copyright                        : http://ironclub.tv

Video
ID                               : 0
Format                           : MPEG-4 Visual
Format profile                   : Streaming Video@L1
Format settings, BVOP            : Yes
Format settings, QPel            : No
Format settings, GMC             : No warppoints
Format settings, Matrix          : Custom
Codec ID                         : XVID
Codec ID/Hint                    : XviD
Duration                         : 1h 30mn
Bit rate                         : 1 924 Kbps
Width                            : 720 pixels
Height                           : 400 pixels
Display aspect ratio             : 16/9
Frame rate                       : 23.976 fps
Resolution                       : 24 bits
Colorimetry                      : 4:2:0
Scan type                        : Progressive
Bits/(Pixel*Frame)               : 0.279
Stream size                      : 1.21 GiB (83%)
Writing library                  : XviD 1.2.1 (UTC 2008-12-04)

Audio
ID                               : 1
Format                           : AC-3
Format/Info                      : Audio Coding 3
Codec ID                         : 2000
Duration                         : 1h 30mn
Bit rate mode                    : Constant
Bit rate                         : 384 Kbps
Channel(s)                       : 6 channels
Channel positions                : Front: L C R, Surround: L R, LFE
Sampling rate                    : 48.0 KHz
Stream size                      : 247 MiB (17%)
Alignment                        : Split accross interleaves
Interleave, duration             : 42 ms (1.00 video frame)
Interleave, preload duration     : 500 ms

Семпл: http://multi-up.com/722897
picpicpic
Для увеличения картинки щелкните мышкой по превью

Этот торрент доступен для скачивания без регистрации. Перед тем, как его скачать, прочтите, пожалуйста Пользовательское соглашение, а также как можно дольше оставайтесь на раздаче! Также вы можете выкладывать этот торрент или ссылку на него на других интернет-ресурсах, в том числе на торрент трекерах. Для получение более подробной информации о релизе, а также для того, чтобы поблагодарить релизера, вам необходимо зарегистрироваться.

[underverse.su].t18586.torrent
Трекер: Зарегистрирован   [ 02.07.2012 11:21 ]   [ торрент доступен для скачивания без регистрации ]

Статус: проверено (by garry at 02.07.2012 20:37)
Поблагодарили: пока никто не поблагодарил...
Тип торрента: публичный - доступные источники с открытых трекеров: 
Размер: 1,46 GB (занимает 1/3 DVDR, для записи нужно 1 болванка DVDR/RW)
 
 


Последний раз редактировалось: eXtatik (02.07.2012 16:55), всего редактировалось 5 раз(а)

Яндекс.Метрика powered by Sphinx


В Н И М А Н И Е
Сайт не распространяет и не хранит электронные версии произведений, а лишь бесплатно и без коммерческой выгоды (не требуя взамен платы,
SMS и т.д.) предоставляет доступ к создаваемому пользователями каталогу ссылок на торрент-файлы, которые содержат только списки хеш-сумм.
Убедительная просьба с жалобами обращаться напрямую к пользователю, разместившему торрент файл.

Вверх