Loading...
Error

Чувство алчности / For the Love of Money (Элли Каннер) [2012 г., драма, криминал, HDRip]

Статистика раздачи
Размер:  1,37 GB   |    Зарегистрирован:  4 года 5 месяцев   |    Скачан:  5 раз

Полного источника не было: 3 года 11 месяцев

Сидов:  0  |  0 KB/s  ]   Личеров:  0  |  0 KB/s  ]

* - сиды/пиры с внешних источников

   
 
Автор Сообщение

RG NewCinema 

30-Июн-2012 17:07

Чувство алчности / For the Love of Money


Год выпуска: 2012
Жанр: драма, криминал
Страна: США
Режиссер: Элли Каннер
В ролях: Эдвард Ферлонг, Пол Сорвино, Джеймс Каан, Джонатан Липники, Одед Фер, Джефри Тэмбор, Стивен Бауэр, Дельфин Шанеак, Хэл Озсэн, Коуди Лонго
Сюжет фильма:
Действие фильма начинается в Тель-Авиве в 1973 году, где молодой Исаак работает в захудалом казино, месте, в котором обретаются различные сомнительные элементы. После того, как насилие и преступление приходят в его семейство, Исаак вместе со своими родными решает уехать в Лос-Анджелес. Здесь герой картины решает начать все с начала, разрабатывая и начиная воплощать в жизнь свой план достижения успеха в малом бизнесе.

  • Мировая премьера: 8 июня 2012

|
Качество видео: HDRip

Продолжительность: 01:29:30

Формат: avi
Видео: XviD, 720x400, 1728 kbps
Аудио: русский, одноголосый закадровый [любительский, den904], AC3 5.1, 448 kbps

Код:

General
Complete name                    : H:\Видео\dvdrips\For.the.love.of.money.2012.L1.HDRip.avi
Format                           : AVI
Format/Info                      : Audio Video Interleave
File size                        : 1.37 GiB
Duration                         : 1h 29mn
Overall bit rate                 : 2 187 Kbps
Writing application              : VirtualDubMod 1.5.10.2 (build 2540/release)
Writing library                  : VirtualDubMod build 2540/release

Video
ID                               : 0
Format                           : MPEG-4 Visual
Format profile                   : Streaming Video@L1
Format settings, BVOP            : Yes
Format settings, QPel            : No
Format settings, GMC             : No warppoints
Format settings, Matrix          : Default (MPEG)
Codec ID                         : XVID
Codec ID/Hint                    : XviD
Duration                         : 1h 29mn
Bit rate                         : 1 729 Kbps
Width                            : 720 pixels
Height                           : 400 pixels
Display aspect ratio             : 16/9
Frame rate                       : 25.000 fps
Resolution                       : 24 bits
Colorimetry                      : 4:2:0
Scan type                        : Progressive
Bits/(Pixel*Frame)               : 0.240
Stream size                      : 1.08 GiB (79%)
Writing library                  : XviD 1.2.1 (UTC 2008-12-04)

Audio
ID                               : 1
Format                           : AC-3
Format/Info                      : Audio Coding 3
Codec ID                         : 2000
Duration                         : 1h 29mn
Bit rate mode                    : Constant
Bit rate                         : 448 Kbps
Channel(s)                       : 6 channels
Channel positions                : Front: L C R, Surround: L R, LFE
Sampling rate                    : 48.0 KHz
Stream size                      : 287 MiB (20%)
Alignment                        : Split accross interleaves
Interleave, duration             : 40 ms (1.00 video frame)
Interleave, preload duration     : 500 ms

Семпл: http://multi-up.com/726314
picpicpic
Для увеличения картинки щелкните мышкой по превью

Этот торрент недоступен для скачивания без регистрации, однако доступен по публичной magnet-ссылке (источники с публичных трекеров). Перед использованием ссылки прочтите, пожалуйста Пользовательское соглашение, а также как можно дольше оставайтесь на раздаче! Для того, чтобы скачать сам торрент-файл (который видит больше источников), а также для того, чтобы поблагодарить релизера, вам необходимо зарегистрироваться. Если регистрироваться лень - вы можете также попробовать скачать релиз по нашим партнерским ссылкам ниже.

[underverse.su].t18561.torrent
Трекер: Зарегистрирован   [ 30.06.2012 17:07 ]  

Статус: проверено (by garry at 30.06.2012 17:29)
Поблагодарили: пока никто не поблагодарил...
Тип торрента: публичный - доступные источники с открытых трекеров: 
Размер: 1,37 GB (занимает 0,31 DVDR, для записи нужно 1 болванка DVDR/RW)
 
 

Яндекс.Метрика powered by Sphinx


В Н И М А Н И Е
Сайт не распространяет и не хранит электронные версии произведений, а лишь бесплатно и без коммерческой выгоды (не требуя взамен платы,
SMS и т.д.) предоставляет доступ к создаваемому пользователями каталогу ссылок на торрент-файлы, которые содержат только списки хеш-сумм.
Убедительная просьба с жалобами обращаться напрямую к пользователю, разместившему торрент файл.

Вверх