Loading...
Error

Голубая лагуна / Blue Lagoon: The Awakening (Джейк Ньюсам, Микаэль Сэломон) [2012 г., мелодрама, HDTVRip]

Статистика раздачи
Размер:  1,37 GB   |    Зарегистрирован:  4 года 5 месяцев   |    Скачан:  27 раз

Полного источника не было: 4 месяца 28 дней

Сидов:  0  |  0 KB/s  ]   Личеров:  0  |  0 KB/s  ]

* - сиды/пиры с внешних источников

   
 
Автор Сообщение

RG NewCinema 

30-Июн-2012 16:49

Голубая лагуна / Blue Lagoon: The Awakening


Год выпуска: 2012
Жанр: мелодрама
Страна: США
Режиссер: Джейк Ньюсам, Микаэль Сэломон
В ролях: Индиана Эванс, Брентон Туэйтес, Дениз Ричардс, Фрэнк Джон Хьюз, Патрик Ст. Эсприт, Аликс Гиттер, Хейли Кийоко, Айми Кареро, Джейкоб Артист
Сюжет фильма:
В фокусе сюжетной линии двое подростков Эмма и Дин, которые оказались на необитаемом острове в Карибском море. Во время морской прогулки Эмма упала за борт корабля, и только Дин увидел это и прыгнул за ней в море. Проходят недели и молодые люди влюбляются, узнают многое о друг друге, а также познают себя. Фильм представляет современный пересказ классического любовного сюжета, предложенного ранее Рэндалом Клайзером в кинокартине "Голубая лагуна" (1980).

  • Мировая премьера: 16 июня 2012

/
Качество видео: HDTVRip

Продолжительность: 01:25:32

Формат: avi
Видео: XviD, 720x400, 1770 kbps
Аудио #1: русский, одноголосый закадровый [любительский], AC3 2.0, 256 kbps
Аудио #2: английский, оригинал, AC3 2.0, 256 kbps

Код:

General
Complete name                    : H:\Видео\dvdrips\Golubaja.laguna.2012.L1.HDTVRip.1400MB.avi
Format                           : AVI
Format/Info                      : Audio Video Interleave
File size                        : 1.37 GiB
Duration                         : 1h 25mn
Overall bit rate                 : 2 296 Kbps
Writing application              : VirtualDubMod 1.5.10.2 (build 2542/release)
Writing library                  : VirtualDubMod build 2542/release

Video
ID                               : 0
Format                           : MPEG-4 Visual
Format profile                   : Streaming Video@L1
Format settings, BVOP            : Yes
Format settings, QPel            : No
Format settings, GMC             : No warppoints
Format settings, Matrix          : Default (H.263)
Muxing mode                      : Packed bitstream
Codec ID                         : XVID
Codec ID/Hint                    : XviD
Duration                         : 1h 25mn
Bit rate                         : 1 770 Kbps
Width                            : 720 pixels
Height                           : 400 pixels
Display aspect ratio             : 16/9
Frame rate                       : 23.976 fps
Resolution                       : 24 bits
Colorimetry                      : 4:2:0
Scan type                        : Progressive
Bits/(Pixel*Frame)               : 0.256
Stream size                      : 1.06 GiB (77%)
Writing library                  : XviD 1.2.1 (UTC 2008-12-04)

Audio #1
ID                               : 1
Format                           : AC-3
Format/Info                      : Audio Coding 3
Codec ID                         : 2000
Duration                         : 1h 25mn
Bit rate mode                    : Constant
Bit rate                         : 256 Kbps
Channel(s)                       : 2 channels
Channel positions                : L R
Sampling rate                    : 48.0 KHz
Stream size                      : 157 MiB (11%)
Alignment                        : Split accross interleaves
Interleave, duration             : 42 ms (1.00 video frame)
Interleave, preload duration     : 500 ms

Audio #2
ID                               : 2
Format                           : AC-3
Format/Info                      : Audio Coding 3
Codec ID                         : 2000
Duration                         : 1h 25mn
Bit rate mode                    : Constant
Bit rate                         : 256 Kbps
Channel(s)                       : 2 channels
Channel positions                : L R
Sampling rate                    : 48.0 KHz
Stream size                      : 157 MiB (11%)
Alignment                        : Split accross interleaves
Interleave, duration             : 42 ms (1.00 video frame)
Interleave, preload duration     : 500 ms

Семпл: http://multi-up.com/726356
picpicpic
Для увеличения картинки щелкните мышкой по превью

Этот торрент недоступен для скачивания без регистрации, однако доступен по публичной magnet-ссылке (источники с публичных трекеров). Перед использованием ссылки прочтите, пожалуйста Пользовательское соглашение, а также как можно дольше оставайтесь на раздаче! Для того, чтобы скачать сам торрент-файл (который видит больше источников), а также для того, чтобы поблагодарить релизера, вам необходимо зарегистрироваться. Если регистрироваться лень - вы можете также попробовать скачать релиз по нашим партнерским ссылкам ниже.

[underverse.su].t18559.torrent
Трекер: Зарегистрирован   [ 30.06.2012 16:49 ]  

Статус: проверено (by garry at 30.06.2012 17:20)
Поблагодарили: пока никто не поблагодарил...
Тип торрента: публичный - доступные источники с открытых трекеров: 
Размер: 1,37 GB (занимает 0,31 DVDR, для записи нужно 1 болванка DVDR/RW)
 
 
Похожие темы
Форум Тема Автор Торрент Отв. Посл. сооб.
Зарубежное кино [DVDRip, Low-Res HDRip, и т.д.] Голубая Лагуна / The Blue Lagoon (Рэндал Клайзер) [1980 г., приключения, драма, мелодрама, BDRip] MVO + Dub + AVO (Живов) + Original + Sub (Rus,Eng) RG NewCinema
0 | 0

0 | 913

5

09.04.2013 08:05

Зарубежное кино [DVDRip, Low-Res HDRip, и т.д.] Голубая лагуна / Blue Lagoon: The Awakening (Джейк Ньюсам, Микаэль Сэломон) [2012 г., мелодрама, драма, приключения, WEB-DLRip] MVO 90ytr90
5 | 1

0 | 1623

16

20.10.2013 16:28

Зарубежное кино [HDDVDRip / BDRip / WEB-DL / HDTV 1080/720р] Голубая лагуна / Blue Lagoon: The Awakening (Джейк Ньюсом, Микаэл Саломон) [2012 г., Драма, Мелодрама, Приключения, WEB-DL 720p] MVO (RUS) + Original (ENG) + Subs (ENG) Ведьмочка
8 | 0

0 | 603

10

08.08.2014 20:44


Яндекс.Метрика powered by Sphinx


В Н И М А Н И Е
Сайт не распространяет и не хранит электронные версии произведений, а лишь бесплатно и без коммерческой выгоды (не требуя взамен платы,
SMS и т.д.) предоставляет доступ к создаваемому пользователями каталогу ссылок на торрент-файлы, которые содержат только списки хеш-сумм.
Убедительная просьба с жалобами обращаться напрямую к пользователю, разместившему торрент файл.

Вверх