Loading...
Error

Паршивые овцы (Сергей Чекалов) [2010 г., боевик, драма, военный, HDRip]

Статистика раздачи
Размер:  2,05 GB   |    Зарегистрирован:  4 года 5 месяцев   |    Скачан:  13 раз

Полного источника не было: 3 года 10 месяцев

Сидов:  0  |  0 KB/s  ]   Личеров:  0  |  0 KB/s  ]

* - сиды/пиры с внешних источников

   
 
Автор Сообщение

RG NewCinema 

30-Июн-2012 07:23

Паршивые овцы


Год выпуска: 2010
Жанр: боевик, драма, военный
Страна: Россия
Режиссер: Сергей Чекалов
В ролях: Михаил Тарабукин, Кирилл Рубцов, Мухтар Гусенгаджиев, Олеся Жураковская, Сергей Деревянко, Владимир Толоконников, Виктор Соловьев, Андрей Фролов, Алексей Дмитриев, Виталий Кищенко
Сюжет фильма:
История разворачивается во время Великой Отечественной войны. Семерым заключенным удается бежать из зоны и укрыться в маленькой, забытой Богом и людьми, деревушке. Едва переведя дух, герои сталкиваются с новым испытанием - в окрестностях появляется немецкий диверсионный отряд.

И волею судьбы вчерашние враги Родины превращаются в ее яростных защитников.

  • Российская премьера: 10 июня 2010

Качество видео: HDRip

Продолжительность: 01:59:27

Формат: avi
Видео: XviD, 720x400, 1997 kbps
Аудио: русский, оригинал, AC3 5.1, 448 kbps

Код:

General
Complete name                    : H:\Видео\dvdrips\Parshivye.Ovci.2010.O.HDRip.IRONCLUB.avi
Format                           : AVI
Format/Info                      : Audio Video Interleave
Format profile                   : OpenDML
File size                        : 2.05 GiB
Duration                         : 1h 59mn
Overall bit rate                 : 2 458 Kbps
Writing application              : VirtualDubMod 1.5.10.3 | www.virtualdub-fr.org || (build 2550/release)
Writing library                  : VirtualDubMod build 2550/release

Video
ID                               : 0
Format                           : MPEG-4 Visual
Format profile                   : Streaming Video@L1
Format settings, BVOP            : Yes
Format settings, QPel            : No
Format settings, GMC             : No warppoints
Format settings, Matrix          : Custom
Codec ID                         : XVID
Codec ID/Hint                    : XviD
Duration                         : 1h 59mn
Bit rate                         : 1 998 Kbps
Width                            : 720 pixels
Height                           : 400 pixels
Display aspect ratio             : 16/9
Frame rate                       : 25.000 fps
Resolution                       : 24 bits
Colorimetry                      : 4:2:0
Scan type                        : Progressive
Bits/(Pixel*Frame)               : 0.277
Stream size                      : 1.67 GiB (81%)
Writing library                  : XviD 1.2.1 (UTC 2008-12-04)

Audio
ID                               : 1
Format                           : AC-3
Format/Info                      : Audio Coding 3
Codec ID                         : 2000
Duration                         : 1h 59mn
Bit rate mode                    : Constant
Bit rate                         : 448 Kbps
Channel(s)                       : 6 channels
Channel positions                : Front: L C R, Surround: L R, LFE
Sampling rate                    : 48.0 KHz
Stream size                      : 383 MiB (18%)
Alignment                        : Split accross interleaves
Interleave, duration             : 40 ms (1.00 video frame)
Interleave, preload duration     : 500 ms

Семпл: http://multi-up.com/726058
picpicpic
Для увеличения картинки щелкните мышкой по превью

Этот торрент недоступен для скачивания без регистрации, однако доступен по публичной magnet-ссылке (источники с публичных трекеров). Перед использованием ссылки прочтите, пожалуйста Пользовательское соглашение, а также как можно дольше оставайтесь на раздаче! Для того, чтобы скачать сам торрент-файл (который видит больше источников), а также для того, чтобы поблагодарить релизера, вам необходимо зарегистрироваться. Если регистрироваться лень - вы можете также попробовать скачать релиз по нашим партнерским ссылкам ниже.

[underverse.su].t18549.torrent
Трекер: Зарегистрирован   [ 30.06.2012 07:23 ]  

Статус: проверено (by WeaSel at 30.06.2012 07:27)
Поблагодарили: 1 человек
Тип торрента: публичный - доступные источники с открытых трекеров: 
Размер: 2,05 GB (занимает 0,47 DVDR, для записи нужно 1 болванка DVDR/RW)
 
 
Похожие темы
Форум Тема Автор Торрент Отв. Посл. сооб.
Наше кино [DVDRip, Low-Res HDRip, и т.д.] Паршивые овцы (Сергей Чекалов) [2010 г., боевик, драма, военный, BDRip-AVC] garry
2 | 0

0 | 361

8

14.12.2012 20:47

xUSSR сериалы Паршивые овцы / Серии: 1-4 (Сергей Чекалов) [2010 г., боевик, драма, военный, DVDRip] garry
213 | 31

0 | 443

14

14.12.2012 20:59


Яндекс.Метрика powered by Sphinx


В Н И М А Н И Е
Сайт не распространяет и не хранит электронные версии произведений, а лишь бесплатно и без коммерческой выгоды (не требуя взамен платы,
SMS и т.д.) предоставляет доступ к создаваемому пользователями каталогу ссылок на торрент-файлы, которые содержат только списки хеш-сумм.
Убедительная просьба с жалобами обращаться напрямую к пользователю, разместившему торрент файл.

Вверх