Loading...
Error

Красавица из трущоб / Trishna (Майкл Уинтерботтом) [2011 г., драма, DVDRip]

Статистика раздачи
Размер:  1,46 GB   |    Зарегистрирован:  4 года 5 месяцев   |    Скачан:  15 раз

Полного источника не было: 1 год 1 месяц

Сидов:  0  |  0 KB/s  ]   Личеров:  0  |  0 KB/s  ]

* - сиды/пиры с внешних источников

   
 
Автор Сообщение

RG NewCinema 

30-Июн-2012 07:00

Красавица из трущоб / Trishna


Год выпуска: 2011
Жанр: драма
Страна: Великобритания
Режиссер: Майкл Уинтерботтом
В ролях: Фрида Пинто, Анураг Кашьяп, Риз Ахмед, Калки Коечлин, Рошан Сет, Хэриш Ханна
Сюжет фильма:
Тришна девушка из бедной деревни в современной Индии. История начинается с автомобильной аварии. Отец Тришны попал в больницу, нужны деньги. Из Англии как турист приезжает Джей сын местного богача. Джей соблазняет Тришну и продолжает использовать как сексуальную игрушку и одновременно прислугу. Тришна надеется, что Джей изменится и снова будет ее любить. Она ему предана и не может вернуться домой.

  • Мировая премьера: 9 сентября 2011
  • Российская премьера: 24 мая 2012, Русский репортаж

/
Качество видео: DVDRip

Продолжительность: 01:48:40

Формат: avi
Видео: XviD, 720x304, 1684 kbps
Аудио: русский, многоголосый закадровый (профессиональный), AC3 2.0, 224 kbps

Код:

General
Complete name                    : H:\Видео\dvdrips\Krasavica.iz.truwob.2011.P.DVDRip.avi
Format                           : AVI
Format/Info                      : Audio Video Interleave
File size                        : 1.46 GiB
Duration                         : 1h 48mn
Overall bit rate                 : 1 918 Kbps
Movie name                       : Krasavica.iz.truwob.2012.P.DVDRip.IRONCLUB
Director                         : IRONCLUB
Genre                            : Drama
Writing application              : VirtualDubMod 1.5.10.2 (build 2540/release)
Original source form/Name        : Movie
Copyright                        : http://ironclub.tv/

Video
ID                               : 0
Format                           : MPEG-4 Visual
Format profile                   : Streaming Video@L1
Format settings, BVOP            : Yes
Format settings, QPel            : No
Format settings, GMC             : No warppoints
Format settings, Matrix          : Custom
Codec ID                         : XVID
Codec ID/Hint                    : XviD
Duration                         : 1h 48mn
Bit rate                         : 1 685 Kbps
Width                            : 720 pixels
Height                           : 304 pixels
Display aspect ratio             : 2.35
Frame rate                       : 25.000 fps
Resolution                       : 24 bits
Colorimetry                      : 4:2:0
Scan type                        : Progressive
Bits/(Pixel*Frame)               : 0.308
Stream size                      : 1.28 GiB (88%)
Writing library                  : XviD 1.2.1 (UTC 2008-12-04)

Audio
ID                               : 1
Format                           : AC-3
Format/Info                      : Audio Coding 3
Codec ID                         : 2000
Duration                         : 1h 48mn
Bit rate mode                    : Constant
Bit rate                         : 224 Kbps
Channel(s)                       : 2 channels
Channel positions                : L R
Sampling rate                    : 48.0 KHz
Stream size                      : 174 MiB (12%)
Alignment                        : Split accross interleaves
Interleave, duration             : 40 ms (1.00 video frame)
Interleave, preload duration     : 500 ms

Семпл: http://multi-up.com/726015
picpicpic
Для увеличения картинки щелкните мышкой по превью

Этот торрент недоступен для скачивания без регистрации, однако доступен по публичной magnet-ссылке (источники с публичных трекеров). Перед использованием ссылки прочтите, пожалуйста Пользовательское соглашение, а также как можно дольше оставайтесь на раздаче! Для того, чтобы скачать сам торрент-файл (который видит больше источников), а также для того, чтобы поблагодарить релизера, вам необходимо зарегистрироваться. Если регистрироваться лень - вы можете также попробовать скачать релиз по нашим партнерским ссылкам ниже.

[underverse.su].t18548.torrent
Трекер: Зарегистрирован   [ 30.06.2012 07:00 ]  

Статус: проверено (by WeaSel at 30.06.2012 07:46)
Поблагодарили: пока никто не поблагодарил...
Тип торрента: публичный - доступные источники с открытых трекеров: 
Размер: 1,46 GB (занимает 1/3 DVDR, для записи нужно 1 болванка DVDR/RW)
 
 
Похожие темы
Форум Тема Автор Торрент Отв. Посл. сооб.
Зарубежное кино [DVDRip, Low-Res HDRip, и т.д.] Красавица и чудовище / La belle et la bete (Кристоф Ганс) [2014 г., фэнтези, мелодрама, HDRip] Паукан
9 | 0

0 | 1139

85

26.06.2014 13:30

Зарубежные сериалы Красавица и чудовище / Beauty and the Beast / Сезон: 1 / Серии: 1-22 (22) (Гэри Фледер) [2012 г., Драма, криминал, WEBDLRip] MVO Чертёнок
0 | 2

12 | 7425

8

19.05.2013 17:41

Зарубежные сериалы Красавица и чудовище / Beauty and the Beast [сезон 2 / серии 01-16 (16)] (Рик Бота, Стивен А. Эделсон, Майрзи Алмас) [2013 г., детектив, драма, фантастика, WEB-DLRip] MVO (LostFilm) 90ytr90
4 | 2

0 | 3699

4

31.10.2013 07:51

Зарубежные сериалы Красавица и Чудовище / Beauty and the Beast / Сезон 3 (1-13 серии из 13) (Стюарт Гиллард, Рик Бота, Майрзи Алмас) [2015 г., триллер, драма, детектив, фантастика, WEB-DLRip] MVO older
70 | 7

2 | 819

4

13.09.2015 06:04

Зарубежные мультфильмы Красавица и чудовище / Beauty and the Beast (Гари Труздейл / Gary Trousdale, Кирк Уайз / Kirk Wise) [1991 г., мультфильм, семейный, фэнтези, мелодрама, мюзикл, BDRip] Dub 90ytr90
1 | 0

0 | 1915

29

14.12.2013 14:59

* Архив Красавица и чудовище / Beastly (Даниел Барнз) [2010 г., ужасы, фэнтези, мелодрама, DVDRip] Ollleg

2 | 1501

12.11.2010 23:48

Мультфильмы [DVD / HDDVD / BD / Remux] Красавица и чудовище / Beauty and the Beast (Гари Труздейл / Gary Trousdale, Кирк Уайз / Kirk Wise) [1991, Мультфильм, семейный, приключения, Blu-ray disc (custom) BD50 1080p] [2-in-1: Theatrical... uzi2009
2 | 0

0 | 1088

2

23.04.2014 15:22


Яндекс.Метрика powered by Sphinx


В Н И М А Н И Е
Сайт не распространяет и не хранит электронные версии произведений, а лишь бесплатно и без коммерческой выгоды (не требуя взамен платы,
SMS и т.д.) предоставляет доступ к создаваемому пользователями каталогу ссылок на торрент-файлы, которые содержат только списки хеш-сумм.
Убедительная просьба с жалобами обращаться напрямую к пользователю, разместившему торрент файл.

Вверх