Loading...
Error

Плохая мамочка / Bringing Up Bobby (Фамке Янссен) [2011 г., драма, семейный, DVDRip]

Статистика раздачи
Размер:  1,46 GB   |    Зарегистрирован:  4 года 5 месяцев   |    Скачан:  8 раз

Полного источника не было: 2 года

Сидов:  0  |  0 KB/s  ]   Личеров:  0  |  0 KB/s  ]

* - сиды/пиры с внешних источников

   
 
Автор Сообщение

RG NewCinema 

30-Июн-2012 06:28

Плохая мамочка / Bringing Up Bobby


Год выпуска: 2011
Жанр: драма, семейный
Страна: США
Режиссер: Фамке Янссен
В ролях: Милла Йовович, Спенсер Лист, Рори Кокрейн, Марсия Кросс, Билл Пуллман, Джастин Холл, Рэй Прюитт, Шелли Фокс, Рената Батиста, Эрик Старки
Сюжет фильма:
Очаровательная и изобретательная мошенница Олив, когда-то эмигрировавшая из СССР в США, пытается порвать с преступным миром ради своего рожденного в Америке сына Бобби. Вместе они переезжают в далекую от городской суеты Оклахому, но прошлое настигает их и там. За некогда совершенное преступление Олив отправляется в тюрьму. К счастью, о Бобби вызывается позаботиться ее новый знакомый - успешный бизнесмен Кент. Казалось бы, все под контролем, но, выйдя из-за решетки, Олив сталкивается с самым тяжелым испытанием в своей жизни, которое ставит будущее ее ребенка под большой вопрос.

  • Мировая премьера: 5 сентября 2011

/
Качество видео: DVDRip

Продолжительность: 01:31:12

Формат: avi
Видео: XviD, 720x400, 1828 kbps
Аудио: русский, многоголосый закадровый [профессиональный], AC3 5.1, 448 kbps

Код:

General
Complete name                    : H:\Видео\dvdrips\Ploxaya.mamochka.2011.P.DVDRip.IRONCLUB.avi
Format                           : AVI
Format/Info                      : Audio Video Interleave
File size                        : 1.46 GiB
Duration                         : 1h 31mn
Overall bit rate                 : 2 286 Kbps
Movie name                       : Ploxaya.mamochka.2011.P.DVDRip.IRONCLUB
Director                         : IRONCLUB
Genre                            : Comedy | Family
Writing application              : VirtualDubMod 1.5.10.2 (build 2540/release)
Original source form/Name        : Movie
Copyright                        : http://ironclub.tv/

Video
ID                               : 0
Format                           : MPEG-4 Visual
Format profile                   : Streaming Video@L1
Format settings, BVOP            : Yes
Format settings, QPel            : No
Format settings, GMC             : No warppoints
Format settings, Matrix          : Custom
Codec ID                         : XVID
Codec ID/Hint                    : XviD
Duration                         : 1h 31mn
Bit rate                         : 1 829 Kbps
Width                            : 720 pixels
Height                           : 400 pixels
Display aspect ratio             : 16/9
Frame rate                       : 25.000 fps
Resolution                       : 24 bits
Colorimetry                      : 4:2:0
Scan type                        : Progressive
Bits/(Pixel*Frame)               : 0.254
Stream size                      : 1.16 GiB (80%)
Writing library                  : XviD 1.2.1 (UTC 2008-12-04)

Audio
ID                               : 1
Format                           : AC-3
Format/Info                      : Audio Coding 3
Codec ID                         : 2000
Duration                         : 1h 31mn
Bit rate mode                    : Constant
Bit rate                         : 448 Kbps
Channel(s)                       : 6 channels
Channel positions                : Front: L C R, Surround: L R, LFE
Sampling rate                    : 48.0 KHz
Stream size                      : 292 MiB (20%)
Alignment                        : Split accross interleaves
Interleave, duration             : 40 ms (1.00 video frame)
Interleave, preload duration     : 500 ms

Семпл: http://multi-up.com/725831
picpicpic
Для увеличения картинки щелкните мышкой по превью

Этот торрент недоступен для скачивания без регистрации, однако доступен по публичной magnet-ссылке (источники с публичных трекеров). Перед использованием ссылки прочтите, пожалуйста Пользовательское соглашение, а также как можно дольше оставайтесь на раздаче! Для того, чтобы скачать сам торрент-файл (который видит больше источников), а также для того, чтобы поблагодарить релизера, вам необходимо зарегистрироваться. Если регистрироваться лень - вы можете также попробовать скачать релиз по нашим партнерским ссылкам ниже.

[underverse.su].t18547.torrent
Трекер: Зарегистрирован   [ 30.06.2012 06:28 ]  

Статус: проверено (by WeaSel at 30.06.2012 07:26)
Поблагодарили: пока никто не поблагодарил...
Тип торрента: публичный - доступные источники с открытых трекеров: 
Размер: 1,46 GB (занимает 1/3 DVDR, для записи нужно 1 болванка DVDR/RW)
 
 

Яндекс.Метрика powered by Sphinx


В Н И М А Н И Е
Сайт не распространяет и не хранит электронные версии произведений, а лишь бесплатно и без коммерческой выгоды (не требуя взамен платы,
SMS и т.д.) предоставляет доступ к создаваемому пользователями каталогу ссылок на торрент-файлы, которые содержат только списки хеш-сумм.
Убедительная просьба с жалобами обращаться напрямую к пользователю, разместившему торрент файл.

Вверх