Loading...
Error

Любовь втроем / 3 (Том Тыквер) [2010 г., драма, мелодрама, комедия, HDRip]

Статистика раздачи
Размер:  2,18 GB   |    Зарегистрирован:  4 года 5 месяцев   |    Скачан:  7 раз

Полного источника не было: 4 года 2 месяца

Сидов:  0  |  0 KB/s  ]   Личеров:  0  |  0 KB/s  ]

* - сиды/пиры с внешних источников

   
 
Автор Сообщение

RG NewCinema 

29-Июн-2012 06:02

Любовь втроем / 3


Год выпуска: 2010
Жанр: драма, мелодрама, комедия
Страна: Германия
Режиссер: Том Тыквер
В ролях: Софи Роиз, Себастьян Шиппер, Девид Штрисов, Ангела Винклер, Annedore Kleist, Alexander Hörbe, Винни Бёве, Ханс-Уве Бауэр, Карина Визе, Dominique Chiout
Сюжет фильма:
Ханна и Симон долгие годы живут вместе и вполне счастливы. Но не все в их отношениях идет гладко — безуспешные попытки исправить ошибки молодости, отсутствие детей, романы на стороне. Вместе ими пережито слишком многое, а что впереди? Все меняется, когда в их жизни появляется Адам. Для каждого из них он становится больше, чем другом. Любовный треугольник может оказаться не вполне традиционным.

  • Мировая премьера: 10 сентября 2010
  • Российская премьера: 9 июня 2011, Русский репортаж

|
Качество видео: HDRip

Продолжительность: 01:58:46

Формат: avi
Видео: XviD, 720x304, 1716 kbps
Аудио #1: русский, многоголосый закадровый [профессиональный], AC3 5.1, 448 kbps
Аудио #2: немецкий, оригинал, AC3 5.1, 448 kbps

Код:

General
Complete name                    : H:\Видео\dvdrips\Ljubov.vtroem.2010.P.HDRip.IRONCLUB.avi
Format                           : AVI
Format/Info                      : Audio Video Interleave
Format profile                   : OpenDML
File size                        : 2.18 GiB
Duration                         : 1h 58mn
Overall bit rate                 : 2 631 Kbps
Movie name                       : Ljubov.vtroem.2010.P.HDRip.IRONCLUB
Director                         : IRONCLUB
Genre                            : Comedy | Drama | Romance
Writing application              : VirtualDubMod 1.5.10.2 (build 2540/release)
Original source form/Name        : Movie
Copyright                        : http://ironclub.tv/

Video
ID                               : 0
Format                           : MPEG-4 Visual
Format profile                   : Streaming Video@L1
Format settings, BVOP            : Yes
Format settings, QPel            : No
Format settings, GMC             : No warppoints
Format settings, Matrix          : Custom
Codec ID                         : XVID
Codec ID/Hint                    : XviD
Duration                         : 1h 58mn
Bit rate                         : 1 717 Kbps
Width                            : 720 pixels
Height                           : 304 pixels
Display aspect ratio             : 2.35
Frame rate                       : 24.000 fps
Resolution                       : 24 bits
Colorimetry                      : 4:2:0
Scan type                        : Progressive
Bits/(Pixel*Frame)               : 0.327
Stream size                      : 1.42 GiB (65%)
Writing library                  : XviD 1.2.1 (UTC 2008-12-04)

Audio #1
ID                               : 1
Format                           : AC-3
Format/Info                      : Audio Coding 3
Codec ID                         : 2000
Duration                         : 1h 58mn
Bit rate mode                    : Constant
Bit rate                         : 448 Kbps
Channel(s)                       : 6 channels
Channel positions                : Front: L C R, Surround: L R, LFE
Sampling rate                    : 48.0 KHz
Stream size                      : 381 MiB (17%)
Alignment                        : Split accross interleaves
Interleave, duration             : 42 ms (1.00 video frame)
Interleave, preload duration     : 500 ms

Audio #2
ID                               : 2
Format                           : AC-3
Format/Info                      : Audio Coding 3
Codec ID                         : 2000
Duration                         : 1h 58mn
Bit rate mode                    : Constant
Bit rate                         : 448 Kbps
Channel(s)                       : 6 channels
Channel positions                : Front: L C R, Surround: L R, LFE
Sampling rate                    : 48.0 KHz
Stream size                      : 381 MiB (17%)
Alignment                        : Split accross interleaves
Interleave, duration             : 42 ms (1.00 video frame)
Interleave, preload duration     : 500 ms

Семпл: http://multi-up.com/725382/
picpicpic
Для увеличения картинки щелкните мышкой по превью

Этот торрент недоступен для скачивания без регистрации, однако доступен по публичной magnet-ссылке (источники с публичных трекеров). Перед использованием ссылки прочтите, пожалуйста Пользовательское соглашение, а также как можно дольше оставайтесь на раздаче! Для того, чтобы скачать сам торрент-файл (который видит больше источников), а также для того, чтобы поблагодарить релизера, вам необходимо зарегистрироваться. Если регистрироваться лень - вы можете также попробовать скачать релиз по нашим партнерским ссылкам ниже.

[underverse.su].t18537.torrent
Трекер: Зарегистрирован   [ 29.06.2012 06:02 ]  

Статус: проверено (by WeaSel at 29.06.2012 07:08)
Поблагодарили: пока никто не поблагодарил...
Тип торрента: публичный - доступные источники с открытых трекеров: 
Размер: 2,18 GB (занимает 1/2 DVDR, для записи нужно 1 болванка DVDR/RW)
 
 

Яндекс.Метрика powered by Sphinx


В Н И М А Н И Е
Сайт не распространяет и не хранит электронные версии произведений, а лишь бесплатно и без коммерческой выгоды (не требуя взамен платы,
SMS и т.д.) предоставляет доступ к создаваемому пользователями каталогу ссылок на торрент-файлы, которые содержат только списки хеш-сумм.
Убедительная просьба с жалобами обращаться напрямую к пользователю, разместившему торрент файл.

Вверх