Loading...
Error

Незваные / The Uninvited (Чарли Гард, Томас Гард) [2009 г., ужасы, триллер, драма, детектив, DVDRip]

Статистика раздачи
Размер:  1,37 GB   |    Зарегистрирован:  4 года 5 месяцев   |    Скачан:  8 раз

Полного источника не было: 2 года 5 месяцев

Сидов:  0  |  0 KB/s  ]   Личеров:  0  |  0 KB/s  ]

* - сиды/пиры с внешних источников

   
 
Автор Сообщение

theatre Пол:Муж

27-Июн-2012 08:30

Незваные / The Uninvited


Год выпуска: 2009
Жанр: ужасы, триллер, драма, детектив
Страна: США
Режиссер: Чарли Гард, Томас Гард
В ролях: Эмили Браунинг, Ариэль Кеббел, Дэвид Стрэтэйрн, Элизабет Бэнкс, Майя Массар, Кевин МакНалти, Джесси Мосс, Дин Пол Гибсон, Дон С. Дэвис, Лекс Бёрнэм
Сюжет фильма:
Анна, после смерти матери, попадает в клинику. После лечения она возвращается домой и узнает, что отец встречается с Рейчел, медсестрой, которая когда-то ухаживала за ее умирающей матерью. Смятение Анны сменяется ужасом, когда ее посещает призрак матери и сообщает о злобных намерениях медсестры. Вместе со своей сестрой она начинает расследовать странные обстоятельства гибели их матери, и вскоре их противостояние с незваной гостьей достигает апогея

  • Мировая премьера: 30 января 2009
  • Российская премьера: 30 апреля 2009, Централ Партнершип


Качество видео: DVDRip

Продолжительность: 01:27:16

Формат: avi
Видео: XviD, 720x400, 1790 kbps
Аудио: русский, дублированный (лицензия), AC3 5.1, 448 kbps

Код:

General
Complete name                    : C:\downloads\Nezvanye.2009.XviD.DVDRip.(HDRip).by.fanatus.avi
Format                           : AVI
Format/Info                      : Audio Video Interleave
File size                        : 1.37 GiB
Duration                         : 1h 27mn
Overall bit rate                 : 2 247 Kbps
Writing library                  : VirtualDub build 29963/release

Video
ID                               : 0
Format                           : MPEG-4 Visual
Format profile                   : Streaming Video@L1
Format settings, BVOP            : Yes
Format settings, QPel            : No
Format settings, GMC             : No warppoints
Format settings, Matrix          : Custom
Muxing mode                      : Packed bitstream
Codec ID                         : XVID
Codec ID/Hint                    : XviD
Duration                         : 1h 27mn
Bit rate                         : 1 790 Kbps
Width                            : 720 pixels
Height                           : 400 pixels
Display aspect ratio             : 16/9
Frame rate                       : 23.976 fps
Resolution                       : 24 bits
Colorimetry                      : 4:2:0
Scan type                        : Progressive
Bits/(Pixel*Frame)               : 0.259
Stream size                      : 1.09 GiB (80%)
Writing library                  : XviD 1.2.1 (UTC 2008-12-04)

Audio
ID                               : 1
Format                           : AC-3
Format/Info                      : Audio Coding 3
Codec ID                         : 2000
Duration                         : 1h 27mn
Bit rate mode                    : Constant
Bit rate                         : 448 Kbps
Channel(s)                       : 6 channels
Channel positions                : Front: L C R, Surround: L R, LFE
Sampling rate                    : 48.0 KHz
Stream size                      : 280 MiB (20%)
Alignment                        : Aligned on interleaves
Interleave, duration             : 42 ms (1.00 video frame)
Interleave, preload duration     : 512 ms

picpicpic
Для увеличения картинки щелкните мышкой по превью

Этот торрент недоступен для скачивания без регистрации, однако доступен по публичной magnet-ссылке (источники с публичных трекеров). Перед использованием ссылки прочтите, пожалуйста Пользовательское соглашение, а также как можно дольше оставайтесь на раздаче! Для того, чтобы скачать сам торрент-файл (который видит больше источников), а также для того, чтобы поблагодарить релизера, вам необходимо зарегистрироваться. Если регистрироваться лень - вы можете также попробовать скачать релиз по нашим партнерским ссылкам ниже.

[underverse.su].t18505.torrent
Трекер: Зарегистрирован   [ 27.06.2012 08:30 ]  

Статус: проверено (by garry at 27.06.2012 08:55)
Поблагодарили: пока никто не поблагодарил...
Тип торрента: публичный - доступные источники с открытых трекеров: 
Размер: 1,37 GB (занимает 0,31 DVDR, для записи нужно 1 болванка DVDR/RW)
 
 

Яндекс.Метрика powered by Sphinx


В Н И М А Н И Е
Сайт не распространяет и не хранит электронные версии произведений, а лишь бесплатно и без коммерческой выгоды (не требуя взамен платы,
SMS и т.д.) предоставляет доступ к создаваемому пользователями каталогу ссылок на торрент-файлы, которые содержат только списки хеш-сумм.
Убедительная просьба с жалобами обращаться напрямую к пользователю, разместившему торрент файл.

Вверх