Loading...
Error

На игле / Trainspotting (Дэнни Бойл) [1996 г., драма, криминал, DVDRip]

Статистика раздачи
Размер:  1,45 GB   |    Зарегистрирован:  4 года 5 месяцев   |    Скачан:  3 раза

Полного источника не было: 3 года 10 месяцев

Сидов:  0  |  0 KB/s  ]   Личеров:  0  |  0 KB/s  ]

* - сиды/пиры с внешних источников

   
 
Автор Сообщение

theatre Пол:Муж

27-Июн-2012 07:41

На игле / Trainspotting


Год выпуска: 1996
Жанр: драма, криминал
Страна: Великобритания
Режиссер: Дэнни Бойл
В ролях: Юэн МакГрегор, Юэн Бремнер, Джонни Ли Миллер, Кевин МакКидд, Роберт Карлайл, Келли Макдоналд, Питер Муллан, Джеймс Космо, Айлин Николас, Сьюзэн Видлер
Сюжет фильма:
Выбирай жизнь. Выбирай работу. Выбирай карьеру. Выбирай семью. Выбирай большие телевизоры, стиральные машины, автомобили, компакт-диск плэйеры, электрические консервные ножи. Выбирай хорошее здоровье, низкий уровень холестерина и стоматологическую страховку.

Выбирай недвижимость и аккуратно выплачивай взносы. Выбери свой первый дом. Выбирай своих друзей. Выбери себе курорт и шикарные чемоданы. Выбери костюм-тройку лучшей фирмы из самого дорогого материала. Выбери набор Сделай сам, чтобы было чем заняться воскресным утром.

Выбери удобный диван, чтобы развалиться на нем и смотреть отупляющее шоу. Набивай свое брюхо всякой всячиной. Выбери загнивание в конце всего и вспомни со стыдом напоследок своих дружков-подонков, которых ты заложил чтобы выкарабкаться. Выбирай будущее. Выбирай жизнь.

Но зачем мне все это? Я не стал выбирать жизнь Я выбрал кое-что другое Почему? Да потому Какие могут быть почему, когда ты под кайфом? Когда есть героин

  • Мировая премьера: 23 февраля 1996


Качество видео: DVDRip

Продолжительность: 01:33:50

Формат: avi
Видео: XviD, 720x400, 1819 kbps
Аудио: русский, многоголосый закадровый (профессиональный), AC3 5.1, 384 kbps

Код:

General
Complete name                    : C:\downloads\Na.Igle.1996.XviD.DVDRip.(BDRip).HQCLUB.avi
Format                           : AVI
Format/Info                      : Audio Video Interleave
File size                        : 1.45 GiB
Duration                         : 1h 33mn
Overall bit rate                 : 2 213 Kbps
Movie name                       : Na.Igle.1996.RUS.BDRip.XviD.AC3.-HQCLUB
Director                         : kingsize87
Writing application              : VirtualDubMod 1.5.10.2 (build 2542/release)
Copyright                        : http://hqclub.net
Comment                          : 11.02.2010

Video
ID                               : 0
Format                           : MPEG-4 Visual
Format profile                   : Streaming Video@L1
Format settings, BVOP            : Yes
Format settings, QPel            : No
Format settings, GMC             : No warppoints
Format settings, Matrix          : Custom
Codec ID                         : XVID
Codec ID/Hint                    : XviD
Duration                         : 1h 33mn
Bit rate                         : 1 820 Kbps
Width                            : 720 pixels
Height                           : 400 pixels
Display aspect ratio             : 16/9
Frame rate                       : 23.976 fps
Resolution                       : 24 bits
Colorimetry                      : 4:2:0
Scan type                        : Progressive
Bits/(Pixel*Frame)               : 0.264
Stream size                      : 1.19 GiB (82%)
Writing library                  : XviD 1.2.1 (UTC 2008-12-04)

Audio
ID                               : 1
Format                           : AC-3
Format/Info                      : Audio Coding 3
Codec ID                         : 2000
Duration                         : 1h 33mn
Bit rate mode                    : Constant
Bit rate                         : 384 Kbps
Channel(s)                       : 6 channels
Channel positions                : Front: L C R, Surround: L R, LFE
Sampling rate                    : 48.0 KHz
Stream size                      : 258 MiB (17%)
Alignment                        : Split accross interleaves
Interleave, duration             : 42 ms (1.00 video frame)
Interleave, preload duration     : 500 ms

picpicpic
Для увеличения картинки щелкните мышкой по превью

Этот торрент недоступен для скачивания без регистрации, однако доступен по публичной magnet-ссылке (источники с публичных трекеров). Перед использованием ссылки прочтите, пожалуйста Пользовательское соглашение, а также как можно дольше оставайтесь на раздаче! Для того, чтобы скачать сам торрент-файл (который видит больше источников), а также для того, чтобы поблагодарить релизера, вам необходимо зарегистрироваться. Если регистрироваться лень - вы можете также попробовать скачать релиз по нашим партнерским ссылкам ниже.

[underverse.su].t18503.torrent
Трекер: Зарегистрирован   [ 27.06.2012 07:41 ]  

Статус: проверено (by Паукан at 27.06.2012 08:01)
Поблагодарили: пока никто не поблагодарил...
Тип торрента: публичный - доступные источники с открытых трекеров: 
Размер: 1,45 GB (занимает 1/3 DVDR, для записи нужно 1 болванка DVDR/RW)
 
 

Яндекс.Метрика powered by Sphinx


В Н И М А Н И Е
Сайт не распространяет и не хранит электронные версии произведений, а лишь бесплатно и без коммерческой выгоды (не требуя взамен платы,
SMS и т.д.) предоставляет доступ к создаваемому пользователями каталогу ссылок на торрент-файлы, которые содержат только списки хеш-сумм.
Убедительная просьба с жалобами обращаться напрямую к пользователю, разместившему торрент файл.

Вверх