Loading...
Error

Служу Советскому Союзу! (Александр Устюгов) [2012 г., драма, история, DVDRip]

Статистика раздачи
Размер:  1,46 GB   |    Зарегистрирован:  3 года 2 месяца   |    Скачан:  17 раз

Полного источника не было: 3 дня

Сидов:  0  |  0 KB/s  ]   Личеров:  0  |  0 KB/s  ]

* - сиды/пиры с внешних источников

   
 
Автор Сообщение

RG NewCinema 

27-Июн-2012 06:17

Служу Советскому Союзу!


Год выпуска: 2012
Жанр: драма, история
Страна: Россия , Россия
Режиссер: Александр Устюгов
В ролях: Максим Аверин, Нонна Гришаева, Юрий Ицков, Сергей Перегудов, Сергей Уманов, Дмитрий Поднозов, Олег Алмазов, Алексей Блохин, Виталий Тимашков, Сергей Оленберг
Сюжет фильма:
СССР, 1941 год. Она - всенародно любимая актриса, своевольная и независимая, способная отказать даже всесильному начальнику НКВД Лаврентию Берии. Он - не менее популярный писатель, золотое перо центральной газеты, денди и любимец публики. По мнению окружающих, они самая гармоничная, просто образцовая советская пара, но отношения двух ярких личностей далеки от гармонии.

Чтобы понять, насколько сильны их чувства, героям придется расстаться перед самой войной и вновь встретиться уже в лагере для заключенных в районе Мурманска, на берегу Белого моря. Он - как враг народа, допустивший непростительную опечатку в газете, она - как член коллектива художественной самодеятельности, обслуживающего подразделения ГУЛАГа. Когда недалеко от лагеря высаживается группа фашистских диверсантов, у заключенных появляется шанс доказать свою преданность Родине, а у бывших возлюбленных - восстановить свою любовь.

  • Мировая премьера: 26 февраля 2012

Качество видео: DVDRip
Продолжительность: 01:37:21
Формат: avi
Видео: XviD, 720x400, 1748 kbps
Аудио: русский, оригинал, AC3 2, 384 kbps

Код:

General
Complete name                    : H:\Видео\dvdrips\Sluzhu.Sovetskomu.Soyuzu.2012.O.DVDRip.avi
Format                           : AVI
Format/Info                      : Audio Video Interleave
File size                        : 1.45 GiB
Duration                         : 1h 37mn
Overall bit rate                 : 2 125 Kbps
Writing application              : VirtualDubMod 1.5.10.2 (build 2540/release)
Writing library                  : VirtualDubMod build 2540/release

Video
ID                               : 0
Format                           : MPEG-4 Visual
Format profile                   : Streaming Video@L1
Format settings, BVOP            : Yes
Format settings, QPel            : No
Format settings, GMC             : No warppoints
Format settings, Matrix          : Custom
Codec ID                         : XVID
Codec ID/Hint                    : XviD
Duration                         : 1h 37mn
Bit rate                         : 1 749 Kbps
Width                            : 720 pixels
Height                           : 400 pixels
Display aspect ratio             : 16/9
Frame rate                       : 25.000 fps
Resolution                       : 24 bits
Colorimetry                      : 4:2:0
Scan type                        : Progressive
Bits/(Pixel*Frame)               : 0.243
Stream size                      : 1.19 GiB (82%)
Writing library                  : XviD 65

Audio
ID                               : 1
Format                           : AC-3
Format/Info                      : Audio Coding 3
Codec ID                         : 2000
Duration                         : 1h 33mn
Bit rate mode                    : Constant
Bit rate                         : 384 Kbps
Channel(s)                       : 2 channels
Channel positions                : Front: L C R, Surround: L R, LFE
Sampling rate                    : 48.0 KHz
Stream size                      : 255 MiB (17%)
Alignment                        : Split accross interleaves
Interleave, duration             : 42 ms (1.05 video frame)
Interleave, preload duration     : 500 ms

Семпл: http://multi-up.com/724512
picpicpic
Для увеличения картинки щелкните мышкой по превью

Этот торрент недоступен для скачивания без регистрации, однако доступен по публичной magnet-ссылке (источники с публичных трекеров). Перед использованием ссылки прочтите, пожалуйста Пользовательское соглашение, а также как можно дольше оставайтесь на раздаче! Для того, чтобы скачать сам торрент-файл (который видит больше источников), а также для того, чтобы поблагодарить релизера, вам необходимо зарегистрироваться. Если регистрироваться лень - вы можете также попробовать скачать релиз по нашим партнерским ссылкам ниже.

[underverse.su].t18500.torrent
Трекер: Зарегистрирован   [ 24.09.2013 15:05 ]  

Статус: проверено (by Чертёнок at 24.09.2013 15:05)
Поблагодарили: 6 человек
Тип торрента: публичный - доступные источники с открытых трекеров: 
Размер: 1,46 GB (занимает 1/3 DVDR, для записи нужно 1 болванка DVDR/RW)
 
 

lvladimir198Пол:Муж

26-Июл-2012 14:23

Неоднозначный фильм.

ak545 

28-Сен-2013 15:50

Жанр - фантастика %)

Яндекс.Метрика powered by Sphinx


В Н И М А Н И Е
Сайт не распространяет и не хранит электронные версии произведений, а лишь бесплатно и без коммерческой выгоды (не требуя взамен платы,
SMS и т.д.) предоставляет доступ к создаваемому пользователями каталогу ссылок на торрент-файлы, которые содержат только списки хеш-сумм.
Убедительная просьба с жалобами обращаться напрямую к пользователю, разместившему торрент файл.

Вверх