Loading...
Error

Связь времен (Алексей Колмогоров) [2010 г., драма, военный, DVDRip]

Статистика раздачи
Размер:  1,46 GB   |    Зарегистрирован:  4 года 5 месяцев   |    Скачан:  16 раз

Полного источника не было: 2 года 6 месяцев

Сидов:  0  |  0 KB/s  ]   Личеров:  0  |  0 KB/s  ]

* - сиды/пиры с внешних источников

   
 
Автор Сообщение

RG NewCinema 

27-Июн-2012 05:57

Связь времен


Год выпуска: 2010
Жанр: драма, военный
Страна: Россия
Режиссер: Алексей Колмогоров
В ролях: Алексей Серебряков, Светлана Иванова, Маркус Кунце, Екатерина Вилкова, Тамара Спиричева, Жан-Марк Биркхольц, Марсель Хайцманн, Кирилл Бурдихин, Галина Польских, Штеффен Грот
Сюжет фильма:
Это невероятная история любви, преодолевшей войну и пропасть времени длиной в шестьдесят семь лет. Действие происходит в двух временных линиях: в наше время и в 1943 году, в России и в Германии. Два молодых лейтенанта — немец и русский — разделенные войной, идеологией, солдатским долгом, вынуждены волею обстоятельств преодолеть взаимную ненависть и заключить перемирие. Посреди войны они оказываются на островке хрупкого мира, где влюбляются в одну девушку. Им хотелось бы продлить этот светлый сон. Но война продолжается, и каждый должен вернуться к своим. Они снова враги. Единственное, в чем оба лейтенанта сходятся — они должны спасти девушку. И они ее спасают ценой собственных жизней. И через шестьдесят семь лет после гибели они спасают ее снова, мистическим образом передав информацию о грозящей ей беде своим внукам.

  • Российская премьера: 18 ноября 2010, Mallory Film

Качество видео: DVDRip

Продолжительность: 01:44:14

Формат: avi
Видео: XviD, 720x400, 1773 kbps
Аудио: русский, оригинал, AC3 2.0, 224 kbps

Код:

General
Complete name                    : H:\Видео\dvdrips\Svyaz.vremen.2010.O.DVDRip.IRONCLUB.avi
Format                           : AVI
Format/Info                      : Audio Video Interleave
File size                        : 1.46 GiB
Duration                         : 1h 44mn
Overall bit rate                 : 2 007 Kbps
Writing application              : VirtualDubMod 1.5.10.2 (build 2540/release)
Writing library                  : VirtualDubMod build 2540/release

Video
ID                               : 0
Format                           : MPEG-4 Visual
Format profile                   : Streaming Video@L1
Format settings, BVOP            : Yes
Format settings, QPel            : No
Format settings, GMC             : No warppoints
Format settings, Matrix          : Custom
Codec ID                         : XVID
Codec ID/Hint                    : XviD
Duration                         : 1h 44mn
Bit rate                         : 1 774 Kbps
Width                            : 720 pixels
Height                           : 400 pixels
Display aspect ratio             : 16/9
Frame rate                       : 25.000 fps
Resolution                       : 24 bits
Colorimetry                      : 4:2:0
Scan type                        : Progressive
Bits/(Pixel*Frame)               : 0.246
Stream size                      : 1.29 GiB (88%)
Writing library                  : XviD 1.2.1 (UTC 2008-12-04)

Audio
ID                               : 1
Format                           : AC-3
Format/Info                      : Audio Coding 3
Codec ID                         : 2000
Duration                         : 1h 44mn
Bit rate mode                    : Constant
Bit rate                         : 224 Kbps
Channel(s)                       : 2 channels
Channel positions                : L R
Sampling rate                    : 48.0 KHz
Stream size                      : 167 MiB (11%)
Alignment                        : Split accross interleaves
Interleave, duration             : 40 ms (1.00 video frame)
Interleave, preload duration     : 500 ms

Семпл: http://multi-up.com/724494
picpicpic
Для увеличения картинки щелкните мышкой по превью

Этот торрент недоступен для скачивания без регистрации, однако доступен по публичной magnet-ссылке (источники с публичных трекеров). Перед использованием ссылки прочтите, пожалуйста Пользовательское соглашение, а также как можно дольше оставайтесь на раздаче! Для того, чтобы скачать сам торрент-файл (который видит больше источников), а также для того, чтобы поблагодарить релизера, вам необходимо зарегистрироваться. Если регистрироваться лень - вы можете также попробовать скачать релиз по нашим партнерским ссылкам ниже.

[underverse.su].t18499.torrent
Трекер: Зарегистрирован   [ 27.06.2012 05:57 ]  

Статус: проверено (by WeaSel at 27.06.2012 06:01)
Поблагодарили: пока никто не поблагодарил...
Тип торрента: публичный - доступные источники с открытых трекеров: 
Размер: 1,46 GB (занимает 0,33 DVDR, для записи нужно 1 болванка DVDR/RW)
 
 

lvladimir198Пол:Муж

26-Июл-2012 14:24

Сильный фильм.

Dmitron Пол:Муж

30-Июл-2012 12:35

Не забывают....1941-1945

goldim Пол:Муж

01-Окт-2012 14:52

хорошая темы выбрана, но сюжет слабоват...

Яндекс.Метрика powered by Sphinx


В Н И М А Н И Е
Сайт не распространяет и не хранит электронные версии произведений, а лишь бесплатно и без коммерческой выгоды (не требуя взамен платы,
SMS и т.д.) предоставляет доступ к создаваемому пользователями каталогу ссылок на торрент-файлы, которые содержат только списки хеш-сумм.
Убедительная просьба с жалобами обращаться напрямую к пользователю, разместившему торрент файл.

Вверх