Loading...
Error

Кафе де Флор / Cafe de Flore (Жан-Марк Валли) [2011 г., драма, мелодрама, HDRip]

Статистика раздачи
Размер:  1,36 GB   |    Зарегистрирован:  4 года 5 месяцев   |    Скачан:  17 раз
Сидов:  1  |  0 KB/s  ]   Личеров:  0  |  0 KB/s  ]

* - сиды/пиры с внешних источников

   
 
Автор Сообщение

RG NewCinema 

27-Июн-2012 04:34

Кафе де Флор / Cafe de Flore


Год выпуска: 2011
Жанр: драма, мелодрама
Страна: Канада , Франция
Режиссер: Жан-Марк Валли
В ролях: Ванесса Паради, Кевин Парент, Элен Флоран, Эвелин Брошу, Марен Герье, Элис Дюбуа, Эвелин де ла Шенельер, Мишель Дюмон, Линда Смит, Жоанни Корбей-Пише
Сюжет фильма:
Французская изысканность, выдержанность, страстность с лихвой чувствуются в новом творении канадского режиссера Жана-Марка Валли, который решил связать в одно целое две абсолютно разные сюжетные линии, временных пространства и истории любви.
Зрителю предстоит познакомиться с одинокой матерью и ее необычном и очень больном сыне в 1969-м году. А также увидеть современный Монреаль, где популярный ди-джей покидает свою жену и обретает новую любовь.
Что ужасного может произойти в этих таких непохожих семьях и главное – что их связывает?

  • Мировая премьера: 2 сентября 2011
  • Российская премьера: 3 мая 2012, Кино без границ

|
Качество видео: HDRip

Продолжительность: 02:00:45

Формат: avi
Видео: XviD, 720x304, 1383 kbps
Аудио: русский, многоголосый закадровый [профессиональный], MP3 2.0, 224 kbps

Код:

General
Complete name                    : H:\Видео\dvdrips\Kafe.de.flor.2011.P.HDRip.1400MB.avi
Format                           : AVI
Format/Info                      : Audio Video Interleave
File size                        : 1.36 GiB
Duration                         : 2h 0mn
Overall bit rate                 : 1 617 Kbps
Writing application              : VirtualDubMod 1.5.10.2 (build 2540/release)

Video
ID                               : 0
Format                           : MPEG-4 Visual
Format profile                   : Streaming Video@L1
Format settings, BVOP            : Yes
Format settings, QPel            : No
Format settings, GMC             : No warppoints
Format settings, Matrix          : Default (MPEG)
Codec ID                         : XVID
Codec ID/Hint                    : XviD
Duration                         : 2h 0mn
Bit rate                         : 1 384 Kbps
Width                            : 720 pixels
Height                           : 304 pixels
Display aspect ratio             : 2.35
Frame rate                       : 23.976 fps
Resolution                       : 24 bits
Colorimetry                      : 4:2:0
Scan type                        : Progressive
Bits/(Pixel*Frame)               : 0.264
Stream size                      : 1.17 GiB (86%)
Writing library                  : XviD 1.2.1 (UTC 2008-12-04)

Audio
ID                               : 1
Format                           : MPEG Audio
Format version                   : Version 1
Format profile                   : Layer 3
Codec ID                         : 55
Codec ID/Hint                    : MP3
Duration                         : 2h 0mn
Bit rate mode                    : Variable
Bit rate                         : 224 Kbps
Channel(s)                       : 2 channels
Sampling rate                    : 44.1 KHz
Resolution                       : 16 bits
Stream size                      : 193 MiB (14%)
Alignment                        : Split accross interleaves
Interleave, duration             : 42 ms (1.00 video frame)
Interleave, preload duration     : 500 ms
Writing library                  : LAME3.99.4

Семпл: http://multi-up.com/724543
picpicpic
Для увеличения картинки щелкните мышкой по превью

Этот торрент недоступен для скачивания без регистрации, однако доступен по публичной magnet-ссылке (источники с публичных трекеров). Перед использованием ссылки прочтите, пожалуйста Пользовательское соглашение, а также как можно дольше оставайтесь на раздаче! Для того, чтобы скачать сам торрент-файл (который видит больше источников), а также для того, чтобы поблагодарить релизера, вам необходимо зарегистрироваться. Если регистрироваться лень - вы можете также попробовать скачать релиз по нашим партнерским ссылкам ниже.

[underverse.su].t18498.torrent
Трекер: Зарегистрирован   [ 27.06.2012 04:34 ]  

Статус: проверено (by WeaSel at 27.06.2012 05:14)
Поблагодарили: пока никто не поблагодарил...
Тип торрента: публичный - доступные источники с открытых трекеров: 
Размер: 1,36 GB (занимает 0,31 DVDR, для записи нужно 1 болванка DVDR/RW)
 
 
Похожие темы
Форум Тема Автор Торрент Отв. Посл. сооб.
Зарубежное кино [DVDRip, Low-Res HDRip, и т.д.] Кафе де Флор / Cafe de Flore (Жан-Марк Валли) [2011 г., драма, мелодрама, BDRip-AVC] MVO + Original + Sub(Rus,Eng) RG NewCinema
0 | 0

0 | 937

9

23.04.2013 10:38


Яндекс.Метрика powered by Sphinx


В Н И М А Н И Е
Сайт не распространяет и не хранит электронные версии произведений, а лишь бесплатно и без коммерческой выгоды (не требуя взамен платы,
SMS и т.д.) предоставляет доступ к создаваемому пользователями каталогу ссылок на торрент-файлы, которые содержат только списки хеш-сумм.
Убедительная просьба с жалобами обращаться напрямую к пользователю, разместившему торрент файл.

Вверх