Loading...
Error

Вавилон 5: Призыв к оружию (ТВ) / Babylon 5: A Call to Arms (Майкл Виджер) [1999 г., фантастика, драма, DVDRip]

Статистика раздачи
Размер:  1,37 GB   |    Зарегистрирован:  4 года 5 месяцев   |    Скачан:  13 раз

Полного источника не было: 1 год 7 месяцев

Сидов:  0  |  0 KB/s  ]   Личеров:  0  |  0 KB/s  ]

* - сиды/пиры с внешних источников

   
 
Автор Сообщение

Бишеп Пол:Муж

26-Июн-2012 15:15

Вавилон 5: Призыв к оружию (ТВ) / Babylon 5: A Call to Arms


Год выпуска: 1999
Жанр: фантастика, драма
Страна: США
Режиссер: Майкл Виджер
В ролях: Брюс Бокслайтнер, Джерри Дойл, Джефф Конэвей, Кэрри Добро, Питер Вудворд, Тони Тодд, Трэйси Скоггинс, Тони Маджио, Майкл Харрис, Скотт МакДональд
Сюжет фильма:
В этой серии человечеству вновь грозит смертельная опасность. На этот раз Дракхи, бывшие союзники Теней, воспользовавшись технологиями последних, готовят сокрушительный удар.

  • Мировая премьера: 3 января 1999


Качество видео: DVDRip

Продолжительность: 01:33:42

Формат: mkv
Видео: MPEG-4 AVC (H.264), 768x432, 1161 kbps
Аудио #1: английский, , AC3 5.1, 448 kbps
Аудио #2: русский, многоголосый закадровый (профессиональный), AC3 5.1, 448 kbps
Субтитры: вшитые отключаемые, S_TEXT/UTF8, английский

Код:

General
Complete name                    : F:\Фильмы\Babylon 5 - A Call to Arms.mkv
Format                           : Matroska
File size                        : 1.37 GiB
Duration                         : 1h 33mn
Overall bit rate                 : 2 099 Kbps
Movie name                       : Babylon 5 - A Call to Arms
Encoded date                     : UTC 2008-01-15 21:51:24
Writing application              : mkvmerge v2.1.0 ('Another Place To Fall') built on Jan 15 2008 23:46:37
Writing library                  : libebml v0.7.7 + libmatroska v0.8.1

Video
ID                               : 1
Format                           : AVC
Format/Info                      : Advanced Video Codec
Format profile                   : High@L5.1
Format settings, CABAC           : Yes
Format settings, ReFrames        : 8 frames
Muxing mode                      : Container profile=Unknown@5.1
Codec ID                         : V_MPEG4/ISO/AVC
Duration                         : 1h 33mn
Bit rate                         : 1 161 Kbps
Width                            : 768 pixels
Height                           : 432 pixels
Display aspect ratio             : 16/9
Frame rate                       : 23.976 fps
Resolution                       : 24 bits
Colorimetry                      : 4:2:0
Scan type                        : Progressive
Bits/(Pixel*Frame)               : 0.146
Stream size                      : 777 MiB (55%)

Audio #1
ID                               : 2
Format                           : AC-3
Format/Info                      : Audio Coding 3
Codec ID                         : A_AC3
Duration                         : 1h 33mn
Bit rate mode                    : Constant
Bit rate                         : 448 Kbps
Channel(s)                       : 6 channels
Channel positions                : Front: L C R, Surround: L R, LFE
Sampling rate                    : 48.0 KHz
Stream size                      : 300 MiB (21%)
Language                         : English

Audio #2
ID                               : 3
Format                           : AC-3
Format/Info                      : Audio Coding 3
Codec ID                         : A_AC3
Duration                         : 1h 33mn
Bit rate mode                    : Constant
Bit rate                         : 448 Kbps
Channel(s)                       : 6 channels
Channel positions                : Front: L C R, Surround: L R, LFE
Sampling rate                    : 48.0 KHz
Stream size                      : 300 MiB (21%)
Language                         : Russian

Text
ID                               : 4
Format                           : UTF-8
Codec ID                         : S_TEXT/UTF8
Codec ID/Info                    : UTF-8 Plain Text
Language                         : English

Menu
00:00:00.000                     : en:A New Deal
00:03:22.533                     : en:Called to Account
00:05:06.200                     : en:Test Drive
00:09:28.034                     : en:Scrambled Message
00:11:02.200                     : en:Concealed Weapons
00:12:42.400                     : en:Dead World
00:16:25.933                     : en:Den of Thieves
00:22:20.366                     : en:Target Practice
00:25:15.366                     : en:Magic Minute
00:31:43.933                     : en:Urgent Departure
00:34:09.867                     : en:Dream Team
00:40:27.567                     : en:Postwar Debriefing
00:43:19.501                     : en:AWOL President
00:48:46.468                     : en:Daltron 7
00:54:55.768                     : en:Suicide Pact
00:56:25.801                     : en:Report to Garibaldi
00:57:46.668                     : en:Protection From Monsters
01:01:15.968                     : en:Null Field
01:06:53.935                     : en:Commander in Chief
01:11:04.835                     : en:Traitor
01:15:59.968                     : en:Ready, Aim, Fire!
01:26:59.435                     : en:Poisoned Well
01:32:19.501                     : en:End Credits

Семпл: http://multi-up.com/724370
picpicpic
Для увеличения картинки щелкните мышкой по превью

Этот торрент недоступен для скачивания без регистрации, однако доступен по публичной magnet-ссылке (источники с публичных трекеров). Перед использованием ссылки прочтите, пожалуйста Пользовательское соглашение, а также как можно дольше оставайтесь на раздаче! Для того, чтобы скачать сам торрент-файл (который видит больше источников), а также для того, чтобы поблагодарить релизера, вам необходимо зарегистрироваться. Если регистрироваться лень - вы можете также попробовать скачать релиз по нашим партнерским ссылкам ниже.

[underverse.su].t18489.torrent
Трекер: Зарегистрирован   [ 26.06.2012 15:15 ]  

Статус: проверено (by WeaSel at 26.06.2012 15:58)
Поблагодарили: 1 человек
Тип торрента: публичный - доступные источники с открытых трекеров: 
Размер: 1,37 GB (занимает 0,31 DVDR, для записи нужно 1 болванка DVDR/RW)
 
 
Похожие темы
Форум Тема Автор Торрент Отв. Посл. сооб.
Зарубежное кино [DVDRip, Low-Res HDRip, и т.д.] Вавилон 5: Третье пространство (Хесус Сальвадор Тревино) [1998 г., фантастика, драма, DVDRip] Бишеп
0 | 0

2 | 678

10

20.06.2012 20:26

Зарубежное кино [DVDRip, Low-Res HDRip, и т.д.] Вавилон 5: Река душ / Babylon 5: The River of Souls (Джанет Грик) [1998 г., фантастика, драма, DVDRip] Бишеп
0 | 0

0 | 657

7

26.06.2012 14:19


Яндекс.Метрика powered by Sphinx


В Н И М А Н И Е
Сайт не распространяет и не хранит электронные версии произведений, а лишь бесплатно и без коммерческой выгоды (не требуя взамен платы,
SMS и т.д.) предоставляет доступ к создаваемому пользователями каталогу ссылок на торрент-файлы, которые содержат только списки хеш-сумм.
Убедительная просьба с жалобами обращаться напрямую к пользователю, разместившему торрент файл.

Вверх