Loading...
Error

Вавилон 5: Река душ / Babylon 5: The River of Souls (Джанет Грик) [1998 г., фантастика, драма, DVDRip]

Статистика раздачи
Размер:  1,35 GB   |    Зарегистрирован:  4 года 5 месяцев   |    Скачан:  7 раз

Полного источника не было: 1 год 11 месяцев

Сидов:  0  |  0 KB/s  ]   Личеров:  0  |  0 KB/s  ]

* - сиды/пиры с внешних источников

   
 
Автор Сообщение

Бишеп Пол:Муж

26-Июн-2012 14:19

Вавилон 5: Река душ / Babylon 5: The River of Souls


Год выпуска: 1998
Жанр: фантастика, драма
Страна: США
Режиссер: Джанет Грик
В ролях: Джерри Дойл, Трэйси Скоггинс, Джефф Конэвей, Ричард Биггз, Иэн МакШейн, Мартин Шин, Джефф Дусетте, Вейн Александр, Боб Амарал, Beege Barkette
Сюжет фильма:
Эта серия о `мертвых душах`, стремящихся во что бы то ни стало обрести телесную оболочку и вернуться в мир живых. Сосуд с душами случайно попадает на космическую станцию `Вавилон 5`, на которой сразу же начинают происходить странные и необъяснимые события

  • Мировая премьера: 8 ноября 1998


Качество видео: DVDRip

Продолжительность: 01:33:41

Формат: mkv
Видео: MPEG-4 AVC (H.264), 768x432, 1127 kbps
Аудио #1: английский, , AC3 5.1, 448 kbps
Аудио #2: русский, многоголосый закадровый (профессиональный), AC3 5.1, 448 kbps
Субтитры: вшитые отключаемые, S_TEXT/UTF8, английский

Код:

General
Complete name                    : F:\Фильмы\Babylon 5 - The River of Souls.mkv
Format                           : Matroska
File size                        : 1.35 GiB
Duration                         : 1h 33mn
Overall bit rate                 : 2 065 Kbps
Movie name                       : Babylon 5 - The River of Souls
Encoded date                     : UTC 2008-02-14 19:52:10
Writing application              : mkvmerge v2.1.0 ('Another Place To Fall') built on Jan 15 2008 23:46:37
Writing library                  : libebml v0.7.7 + libmatroska v0.8.1

Video
ID                               : 1
Format                           : AVC
Format/Info                      : Advanced Video Codec
Format profile                   : High@L5.1
Format settings, CABAC           : Yes
Format settings, ReFrames        : 8 frames
Muxing mode                      : Container profile=Unknown@5.1
Codec ID                         : V_MPEG4/ISO/AVC
Duration                         : 1h 33mn
Bit rate                         : 1 128 Kbps
Width                            : 768 pixels
Height                           : 432 pixels
Display aspect ratio             : 16/9
Frame rate                       : 23.976 fps
Resolution                       : 24 bits
Colorimetry                      : 4:2:0
Scan type                        : Progressive
Bits/(Pixel*Frame)               : 0.142
Stream size                      : 755 MiB (55%)

Audio #1
ID                               : 2
Format                           : AC-3
Format/Info                      : Audio Coding 3
Codec ID                         : A_AC3
Duration                         : 1h 33mn
Bit rate mode                    : Constant
Bit rate                         : 448 Kbps
Channel(s)                       : 6 channels
Channel positions                : Front: L C R, Surround: L R, LFE
Sampling rate                    : 48.0 KHz
Stream size                      : 300 MiB (22%)
Language                         : English

Audio #2
ID                               : 3
Format                           : AC-3
Format/Info                      : Audio Coding 3
Codec ID                         : A_AC3
Duration                         : 1h 33mn
Bit rate mode                    : Constant
Bit rate                         : 448 Kbps
Channel(s)                       : 6 channels
Channel positions                : Front: L C R, Surround: L R, LFE
Sampling rate                    : 48.0 KHz
Stream size                      : 300 MiB (22%)
Language                         : Russian

Text
ID                               : 4
Format                           : UTF-8
Codec ID                         : S_TEXT/UTF8
Codec ID/Info                    : UTF-8 Plain Text
Language                         : English

Menu
00:00:00.000                     : en:Life's Eternal Relic
00:07:31.567                     : en:Without Sheridan
00:09:59.200                     : en:Virtual Excitement
00:12:07.934                     : en:Meeting Garibaldi
00:15:24.200                     : en:Business of Science
00:20:01.100                     : en:Embarrassing Confession
00:22:58.733                     : en:Bryson Makes Contact
00:24:38.400                     : en:Sensual Telemetry
00:28:34.600                     : en:Soul Asylum
00:31:50.100                     : en:Breakfast Is Served
00:33:26.733                     : en:Research Findings
00:36:14.100                     : en:Powerful Holograms
00:39:51.400                     : en:Drawn to Death
00:46:23.967                     : en:No Time for Lawyers
00:48:58.000                     : en:Unwanted Threesome
00:52:01.900                     : en:The Reaper
00:52:50.800                     : en:Preserved in Hell
00:58:28.467                     : en:Near-Death Experience
01:03:58.834                     : en:Transcendent Mistake
01:11:06.701                     : en:Scared Stiff
01:14:20.034                     : en:Independent Circuit
01:17:35.100                     : en:True Believer
01:19:44.300                     : en:Hostage Negotiations
01:27:21.067                     : en:Back to Life
01:32:31.467                     : en:End Credits

Семпл: http://multi-up.com/724345
picpicpic
Для увеличения картинки щелкните мышкой по превью

Этот торрент недоступен для скачивания без регистрации, однако доступен по публичной magnet-ссылке (источники с публичных трекеров). Перед использованием ссылки прочтите, пожалуйста Пользовательское соглашение, а также как можно дольше оставайтесь на раздаче! Для того, чтобы скачать сам торрент-файл (который видит больше источников), а также для того, чтобы поблагодарить релизера, вам необходимо зарегистрироваться. Если регистрироваться лень - вы можете также попробовать скачать релиз по нашим партнерским ссылкам ниже.

[underverse.su].t18488.torrent
Трекер: Зарегистрирован   [ 26.06.2012 14:19 ]  

Статус: проверено (by WeaSel at 26.06.2012 14:31)
Поблагодарили: 1 человек
Тип торрента: публичный - доступные источники с открытых трекеров: 
Размер: 1,35 GB (занимает 0,31 DVDR, для записи нужно 1 болванка DVDR/RW)
 
 
Похожие темы
Форум Тема Автор Торрент Отв. Посл. сооб.
Зарубежное кино [DVDRip, Low-Res HDRip, и т.д.] Вавилон 5: Третье пространство (Хесус Сальвадор Тревино) [1998 г., фантастика, драма, DVDRip] Бишеп
0 | 0

2 | 679

10

20.06.2012 20:26

Зарубежное кино [DVDRip, Low-Res HDRip, и т.д.] Вавилон 5: Призыв к оружию (ТВ) / Babylon 5: A Call to Arms (Майкл Виджер) [1999 г., фантастика, драма, DVDRip] Бишеп
0 | 0

0 | 784

13

26.06.2012 15:15


Яндекс.Метрика powered by Sphinx


В Н И М А Н И Е
Сайт не распространяет и не хранит электронные версии произведений, а лишь бесплатно и без коммерческой выгоды (не требуя взамен платы,
SMS и т.д.) предоставляет доступ к создаваемому пользователями каталогу ссылок на торрент-файлы, которые содержат только списки хеш-сумм.
Убедительная просьба с жалобами обращаться напрямую к пользователю, разместившему торрент файл.

Вверх