Loading...
Error

Флика: Гордость Страны / Flicka: Country Pride (Майкл Дамиан) [2012 г., семейный, HDRip]

Статистика раздачи
Размер:  1,45 GB   |    Зарегистрирован:  4 года 5 месяцев   |    Скачан:  4 раза

Полного источника не было: 15 часов

Сидов:  0  |  0 KB/s  ]   Личеров:  0  |  0 KB/s  ]

* - сиды/пиры с внешних источников

   
 
Автор Сообщение

RG NewCinema 

26-Июн-2012 05:20

Флика: Гордость Страны / Flicka: Country Pride


Год выпуска: 2012
Жанр: семейный
Страна: США
Режиссер: Майкл Дамиан
В ролях: Лиза Хартман, Кейси Рол, Макс Ллойд-Джонс, Клинт Блэк, Шиван Уильямс, Александр Кэлверт, Эмили Бетт Рикардс, Рустин Гресук
Сюжет фильма:
Когда Тоби принимают на работу в конюшню, в которой содержится Флика, то дочь владельца конюшни быстро находит подход к этой дикой лошади. Будучи хорошей наездницей она надеется объездить лошадь и подготовить ее к предстоящим соревнованиям. Однако конкурирующий тренер пытается отобрать у них конюшню, и Тоби делает все возможное, чтобы спасти положение.

  • Мировая премьера: 1 мая 2012

|
Качество видео: HDRip

Продолжительность: 01:32:10

Формат: avi
Видео: XviD, 720x400, 1852 kbps
Аудио: русский, многоголосый закадровый (профессиональный), AC3 5.1, 384 kbps

Код:

General
Complete name                    : H:\Видео\dvdrips\Flika.gordost.strany.2012.P.HDRip.avi
Format                           : AVI
Format/Info                      : Audio Video Interleave
File size                        : 1.45 GiB
Duration                         : 1h 32mn
Overall bit rate                 : 2 245 Kbps
Writing application              : VirtualDubMod 1.5.10.2 (build 2540/release)
Writing library                  : VirtualDubMod build 2540/release

Video
ID                               : 0
Format                           : MPEG-4 Visual
Format profile                   : Streaming Video@L1
Format settings, BVOP            : Yes
Format settings, QPel            : No
Format settings, GMC             : No warppoints
Format settings, Matrix          : Custom
Codec ID                         : XVID
Codec ID/Hint                    : XviD
Duration                         : 1h 32mn
Bit rate                         : 1 852 Kbps
Width                            : 720 pixels
Height                           : 400 pixels
Display aspect ratio             : 16/9
Frame rate                       : 23.976 fps
Resolution                       : 24 bits
Colorimetry                      : 4:2:0
Scan type                        : Progressive
Bits/(Pixel*Frame)               : 0.268
Stream size                      : 1.19 GiB (82%)
Writing library                  : XviD 1.2.1 (UTC 2008-12-04)

Audio
ID                               : 1
Format                           : AC-3
Format/Info                      : Audio Coding 3
Codec ID                         : 2000
Duration                         : 1h 32mn
Bit rate mode                    : Constant
Bit rate                         : 384 Kbps
Channel(s)                       : 6 channels
Channel positions                : Front: L C R, Surround: L R, LFE
Sampling rate                    : 48.0 KHz
Stream size                      : 253 MiB (17%)
Alignment                        : Split accross interleaves
Interleave, duration             : 42 ms (1.00 video frame)
Interleave, preload duration     : 500 ms

Семпл: http://multi-up.com/723317
picpicpic
Для увеличения картинки щелкните мышкой по превью

Этот торрент недоступен для скачивания без регистрации, однако доступен по публичной magnet-ссылке (источники с публичных трекеров). Перед использованием ссылки прочтите, пожалуйста Пользовательское соглашение, а также как можно дольше оставайтесь на раздаче! Для того, чтобы скачать сам торрент-файл (который видит больше источников), а также для того, чтобы поблагодарить релизера, вам необходимо зарегистрироваться. Если регистрироваться лень - вы можете также попробовать скачать релиз по нашим партнерским ссылкам ниже.

[underverse.su].t18487.torrent
Трекер: Зарегистрирован   [ 26.06.2012 05:20 ]  

Статус: проверено (by Паукан at 26.06.2012 08:52)
Поблагодарили: пока никто не поблагодарил...
Тип торрента: публичный - доступные источники с открытых трекеров: 
Размер: 1,45 GB (занимает 1/3 DVDR, для записи нужно 1 болванка DVDR/RW)
 
 

Яндекс.Метрика powered by Sphinx


В Н И М А Н И Е
Сайт не распространяет и не хранит электронные версии произведений, а лишь бесплатно и без коммерческой выгоды (не требуя взамен платы,
SMS и т.д.) предоставляет доступ к создаваемому пользователями каталогу ссылок на торрент-файлы, которые содержат только списки хеш-сумм.
Убедительная просьба с жалобами обращаться напрямую к пользователю, разместившему торрент файл.

Вверх