Loading...
Error

Самый ужасный выпускной / Worst. Prom. Ever. (Дэн Экман) [2011 г., комедия, HDTVRip]

Статистика раздачи
Размер:  1,37 GB   |    Зарегистрирован:  4 года 5 месяцев   |    Скачан:  17 раз

Полного источника не было: 3 года 8 месяцев

Сидов:  0  |  0 KB/s  ]   Личеров:  0  |  0 KB/s  ]

* - сиды/пиры с внешних источников

   
 
Автор Сообщение

RG NewCinema 

26-Июн-2012 04:39

Самый ужасный выпускной / Worst. Prom. Ever.


Год выпуска: 2011
Жанр: комедия
Страна: США
Режиссер: Дэн Экман
В ролях: Хейли Рэмм, Дэрил Сабара, Хлоя Бриджес, Анджела Тримбур, Натан Кийес, Рати Гупта, Зак Уоггенер, Халлок Билс, Ванесса Симмонс
Сюжет фильма:
Готовишься к выпускному? Лимузины, платья, ленты - банально. Эти ребята покажут тебе, как надо отмечать! Поверь, это прощание со школой ты не сможешь забыть. Даже если захочешь...

  • Мировая премьера: 10 мая 2011

|
Качество видео: HDTVRip

Продолжительность: 01:20:54

Формат: avi
Видео: XviD, 720x400, 2220 kbps
Аудио: русский, многоголосый закадровый [профессиональный], AC3 2.0, 192 kbps

Код:

General
Complete name                    : H:\Видео\dvdrips\Worst.Prom.Ever.2011.HDTVRip.1400MB.avi
Format                           : AVI
Format/Info                      : Audio Video Interleave
File size                        : 1.37 GiB
Duration                         : 1h 20mn
Overall bit rate                 : 2 422 Kbps
Writing application              : VirtualDubMod 1.5.10.3 | www.virtualdub-fr.org || (build 2550/release)
Writing library                  : VirtualDubMod build 2550/release

Video
ID                               : 0
Format                           : MPEG-4 Visual
Format profile                   : Streaming Video@L1
Format settings, BVOP            : Yes
Format settings, QPel            : No
Format settings, GMC             : No warppoints
Format settings, Matrix          : Default (MPEG)
Codec ID                         : XVID
Codec ID/Hint                    : XviD
Duration                         : 1h 20mn
Bit rate                         : 2 221 Kbps
Width                            : 720 pixels
Height                           : 400 pixels
Display aspect ratio             : 16/9
Frame rate                       : 23.976 fps
Resolution                       : 24 bits
Colorimetry                      : 4:2:0
Scan type                        : Progressive
Bits/(Pixel*Frame)               : 0.322
Stream size                      : 1.26 GiB (92%)
Writing library                  : XviD 1.2.1 (UTC 2008-12-04)

Audio
ID                               : 1
Format                           : AC-3
Format/Info                      : Audio Coding 3
Codec ID                         : 2000
Duration                         : 1h 20mn
Bit rate mode                    : Constant
Bit rate                         : 192 Kbps
Channel(s)                       : 2 channels
Channel positions                : L R
Sampling rate                    : 48.0 KHz
Video delay                      : 54ms
Stream size                      : 111 MiB (8%)
Alignment                        : Split accross interleaves
Interleave, duration             : 42 ms (1.00 video frame)
Interleave, preload duration     : 500 ms

Семпл: http://multi-up.com/723599
picpicpic
Для увеличения картинки щелкните мышкой по превью

Этот торрент недоступен для скачивания без регистрации, однако доступен по публичной magnet-ссылке (источники с публичных трекеров). Перед использованием ссылки прочтите, пожалуйста Пользовательское соглашение, а также как можно дольше оставайтесь на раздаче! Для того, чтобы скачать сам торрент-файл (который видит больше источников), а также для того, чтобы поблагодарить релизера, вам необходимо зарегистрироваться. Если регистрироваться лень - вы можете также попробовать скачать релиз по нашим партнерским ссылкам ниже.

[underverse.su].t18486.torrent
Трекер: Зарегистрирован   [ 26.06.2012 04:39 ]  

Статус: проверено (by WeaSel at 26.06.2012 05:22)
Поблагодарили: пока никто не поблагодарил...
Тип торрента: публичный - доступные источники с открытых трекеров: 
Размер: 1,37 GB (занимает 0,31 DVDR, для записи нужно 1 болванка DVDR/RW)
 
 

Яндекс.Метрика powered by Sphinx


В Н И М А Н И Е
Сайт не распространяет и не хранит электронные версии произведений, а лишь бесплатно и без коммерческой выгоды (не требуя взамен платы,
SMS и т.д.) предоставляет доступ к создаваемому пользователями каталогу ссылок на торрент-файлы, которые содержат только списки хеш-сумм.
Убедительная просьба с жалобами обращаться напрямую к пользователю, разместившему торрент файл.

Вверх