Loading...
Error

Черная кобра / When the Cobra Strikes (Скотт Донован, Лилли Менгар) [2012 г., боевик, DVDRip]

Статистика раздачи
Размер:  1,37 GB   |    Зарегистрирован:  4 года 5 месяцев   |    Скачан:  32 раза

Полного источника не было: 4 месяца 28 дней

Сидов:  0  |  0 KB/s  ]   Личеров:  0  |  0 KB/s  ]

* - сиды/пиры с внешних источников

   
 
Автор Сообщение

RG NewCinema 

26-Июн-2012 04:31

Черная кобра / When the Cobra Strikes


Год выпуска: 2012
Жанр: боевик
Страна: США
Режиссер: Скотт Донован, Лилли Менгар
В ролях: Дэмион Пуатье, Кэри-Хироюки Тагава, Джефф Вульф, Т.Дж. Сторм, Роб Дэниэл, Кристина Линдли, Кирали Хайаси, Ричард Дортон, Масами Косака, Джеймисон Янг
Сюжет фильма:
Мужчина по кличке "Черная кобра" занимается контрабандой алмазов в Южной Африке, чтоб накопить денег и выкупить отца из тюрьмы. Продав алмазы мафии, Черная кобра был ограблен мафией. Черной кобре теперь надо вернуть назад чемодан с деньгами. Но чтоб вернуть деньги надо победить лучших наемников якудзы. Сын не бросит отца…

  • Мировая премьера: 22 мая 2012


Качество видео: DVDRip

Продолжительность: 01:28:35

Формат: avi
Видео: XviD, 720x304, 2073 kbps
Аудио: русский, одноголосый закадровый [любительский], MP3 2.0, 128 kbps

Код:

General
Complete name                    : H:\Видео\dvdrips\Black.Cobra.2012.DVDRip.1400MB.avi
Format                           : AVI
Format/Info                      : Audio Video Interleave
File size                        : 1.37 GiB
Duration                         : 1h 28mn
Overall bit rate                 : 2 213 Kbps
Writing application              : VirtualDubMod 1.5.10.3 | www.virtualdub-fr.org || (build 2550/release)
Writing library                  : VirtualDubMod build 2550/release

Video
ID                               : 0
Format                           : MPEG-4 Visual
Format profile                   : Streaming Video@L1
Format settings, BVOP            : Yes
Format settings, QPel            : No
Format settings, GMC             : No warppoints
Format settings, Matrix          : Default (MPEG)
Codec ID                         : XVID
Codec ID/Hint                    : XviD
Duration                         : 1h 28mn
Bit rate                         : 2 073 Kbps
Width                            : 720 pixels
Height                           : 304 pixels
Display aspect ratio             : 2.35
Frame rate                       : 29.970 fps
Resolution                       : 24 bits
Colorimetry                      : 4:2:0
Scan type                        : Progressive
Bits/(Pixel*Frame)               : 0.316
Stream size                      : 1.28 GiB (94%)
Writing library                  : XviD 1.2.1 (UTC 2008-12-04)

Audio
ID                               : 1
Format                           : MPEG Audio
Format version                   : Version 1
Format profile                   : Layer 3
Codec ID                         : 55
Codec ID/Hint                    : MP3
Duration                         : 1h 28mn
Bit rate mode                    : Constant
Bit rate                         : 128 Kbps
Channel(s)                       : 2 channels
Sampling rate                    : 48.0 KHz
Resolution                       : 16 bits
Stream size                      : 81.1 MiB (6%)
Alignment                        : Aligned on interleaves
Interleave, duration             : 33 ms (1.00 video frame)
Interleave, preload duration     : 504 ms

Семпл: http://multi-up.com/723721
picpicpic
Для увеличения картинки щелкните мышкой по превью

Этот торрент недоступен для скачивания без регистрации, однако доступен по публичной magnet-ссылке (источники с публичных трекеров). Перед использованием ссылки прочтите, пожалуйста Пользовательское соглашение, а также как можно дольше оставайтесь на раздаче! Для того, чтобы скачать сам торрент-файл (который видит больше источников), а также для того, чтобы поблагодарить релизера, вам необходимо зарегистрироваться. Если регистрироваться лень - вы можете также попробовать скачать релиз по нашим партнерским ссылкам ниже.

[underverse.su].t18485.torrent
Трекер: Зарегистрирован   [ 26.06.2012 04:31 ]  

Статус: проверено (by WeaSel at 26.06.2012 05:25)
Поблагодарили: 1 человек
Тип торрента: публичный - доступные источники с открытых трекеров: 
Размер: 1,37 GB (занимает 0,31 DVDR, для записи нужно 1 болванка DVDR/RW)
 
 

sbrserjo Пол:Муж

26-Июн-2012 19:35

Кэри-Хироюки Тагава :Yahoo!: =@

Георгий2604 Пол:Муж

30-Июн-2012 18:03

Я не умею раздавать.Хотя есть бллбшойф запас фильмов

Паукан Пол:Муж

30-Июн-2012 18:16

Георгий2604
почитай руководства а главное посмотри это: http://underverse.su/viewtopic.php?t=19729

Яндекс.Метрика powered by Sphinx


В Н И М А Н И Е
Сайт не распространяет и не хранит электронные версии произведений, а лишь бесплатно и без коммерческой выгоды (не требуя взамен платы,
SMS и т.д.) предоставляет доступ к создаваемому пользователями каталогу ссылок на торрент-файлы, которые содержат только списки хеш-сумм.
Убедительная просьба с жалобами обращаться напрямую к пользователю, разместившему торрент файл.

Вверх