Loading...
Error

Отважная Лифи / Madangeul Naon Amtak (Сеонг-Юн Ох) [2011 г., мультфильм, драма, приключения, семейный, HDRip]

Статистика раздачи
Размер:  1,46 GB   |    Зарегистрирован:  4 года 5 месяцев   |    Скачан:  20 раз

Полного источника не было: 2 года 10 месяцев

Сидов:  0  |  0 KB/s  ]   Личеров:  0  |  0 KB/s  ]

* - сиды/пиры с внешних источников

   
 
Автор Сообщение

RG NewCinema 

25-Июн-2012 18:21

Отважная Лифи / Madangeul Naon Amtak


Год выпуска: 2011
Жанр: мультфильм, драма, приключения, семейный
Страна: Корея Южная
Режиссер: Сеонг-Юн Ох
Роли озвучивали: Светлана Кузнецова, Андрей Лёвин, Александр Ноткин, Максим Сергеев, Наталья Данилова, Ксения Бржезовская
Сюжет фильма:
Неугомонная курочка Лифи оставляет уютную сытую жизнь на птицефабрике и отправляется в лес. Волей случая она спасает маленького утенка от лисы и берет его под свое крыло. Веселые и опасные приключения ждут эту странную парочку.
/
Качество видео: HDRip

Продолжительность: 01:32:18

Формат: avi
Видео: XviD, 720x384, 1801 kbps
Аудио: русский, дублированный (лицензия), AC3 5.1, 448 kbps

Код:

General
Complete name                    : H:\Видео\dvdrips\Otvazhnaja.Lifi.2011.D.HDRip.IRONCLUB.avi
Format                           : AVI
Format/Info                      : Audio Video Interleave
File size                        : 1.46 GiB
Duration                         : 1h 32mn
Overall bit rate                 : 2 259 Kbps
Movie name                       : Otvazhnaja.Lifi.2011.D.HDRip.IRONCLUB
Director                         : IRONCLUB
Genre                            : Animation | Adventure | Drama
Writing application              : VirtualDubMod 1.5.10.2 (build 2540/release)
Copyright                        : http://ironclub.tv/

Video
ID                               : 0
Format                           : MPEG-4 Visual
Format profile                   : Streaming Video@L1
Format settings, BVOP            : Yes
Format settings, QPel            : No
Format settings, GMC             : No warppoints
Format settings, Matrix          : Custom
Codec ID                         : XVID
Codec ID/Hint                    : XviD
Duration                         : 1h 32mn
Bit rate                         : 1 802 Kbps
Width                            : 720 pixels
Height                           : 384 pixels
Display aspect ratio             : 1.875
Frame rate                       : 24.000 fps
Resolution                       : 24 bits
Colorimetry                      : 4:2:0
Scan type                        : Progressive
Bits/(Pixel*Frame)               : 0.272
Stream size                      : 1.16 GiB (80%)
Writing library                  : XviD 1.2.1 (UTC 2008-12-04)

Audio
ID                               : 1
Format                           : AC-3
Format/Info                      : Audio Coding 3
Codec ID                         : 2000
Duration                         : 1h 32mn
Bit rate mode                    : Constant
Bit rate                         : 448 Kbps
Channel(s)                       : 6 channels
Channel positions                : Front: L C R, Surround: L R, LFE
Sampling rate                    : 48.0 KHz
Stream size                      : 296 MiB (20%)
Alignment                        : Split accross interleaves
Interleave, duration             : 42 ms (1.00 video frame)
Interleave, preload duration     : 500 ms

picpicpic
Для увеличения картинки щелкните мышкой по превью

Этот торрент недоступен для скачивания без регистрации, однако доступен по публичной magnet-ссылке (источники с публичных трекеров). Перед использованием ссылки прочтите, пожалуйста Пользовательское соглашение, а также как можно дольше оставайтесь на раздаче! Для того, чтобы скачать сам торрент-файл (который видит больше источников), а также для того, чтобы поблагодарить релизера, вам необходимо зарегистрироваться. Если регистрироваться лень - вы можете также попробовать скачать релиз по нашим партнерским ссылкам ниже.

[underverse.su].t18475.torrent
Трекер: Зарегистрирован   [ 25.06.2012 18:21 ]  

Статус: проверено (by Паукан at 25.06.2012 18:32)
Поблагодарили: пока никто не поблагодарил...
Тип торрента: публичный - доступные источники с открытых трекеров: 
Размер: 1,46 GB (занимает 1/3 DVDR, для записи нужно 1 болванка DVDR/RW)
 
 

Яндекс.Метрика powered by Sphinx


В Н И М А Н И Е
Сайт не распространяет и не хранит электронные версии произведений, а лишь бесплатно и без коммерческой выгоды (не требуя взамен платы,
SMS и т.д.) предоставляет доступ к создаваемому пользователями каталогу ссылок на торрент-файлы, которые содержат только списки хеш-сумм.
Убедительная просьба с жалобами обращаться напрямую к пользователю, разместившему торрент файл.

Вверх