Loading...
Error

Секса много не бывает / Un heureux evenement (Реми Безансон) [2011 г., драма, комедия, HDRip]

Статистика раздачи
Размер:  2,05 GB   |    Зарегистрирован:  4 года 5 месяцев   |    Скачан:  21 раз

Полного источника не было: 5 месяцев 7 дней

Сидов:  0  |  0 KB/s  ]   Личеров:  0  |  0 KB/s  ]

* - сиды/пиры с внешних источников

   
 
Автор Сообщение

RG NewCinema 

25-Июн-2012 18:11

Секса много не бывает / Un heureux evenement


Год выпуска: 2011
Жанр: драма, комедия
Страна: Франция , Бельгия
Режиссер: Реми Безансон
В ролях: Луиз Бургуан, Пио Мармай, Жозиан Баласко, Тьерри Фремон, Габриель Лазюр, Фирмин Ришар, Анаис, Дафна Бюрки, Ланник Готри, Жерар Любин, Николь Вальберг, Луи-До де Ланкесэ, Офелия Керинг, Амели Гленн, Доминик Байенс, Мишель Набокофф, Айссату Диоп, Анник Джонсон, Давид Фонкинос, Эрика Сэйнт, Виктория Бекер, Джульетт Бекер
Сюжет фильма:
Первое свидание. Первый поцелуй. Страсть... Первое "Я тебя люблю". Чувства переполняют тебя. Ты летишь и больше никогда не будешь прежней. Но впереди притаилось то, к чему нельзя подготовиться... Чувство, способное разрушить тебя полностью.

  • Мировая премьера: 27 августа 2011
  • Российская премьера: 7 июня 2012, Премиум Фильм

|
Качество видео: HDRip

Продолжительность: 01:49:28

Формат: avi
Видео: XviD, 720x304, 1771 kbps
Аудио #1: русский, многоголосый закадровый (профессиональный), AC3 5.1, 448 kbps
Аудио #2: французский, оригинал, AC3 5.1, 448 kbps

Код:

General
Complete name                    : H:\Видео\dvdrips\Seksa.mnogo.ne.byvaet.2011.P.HDRip.IRONCLUB.avi
Format                           : AVI
Format/Info                      : Audio Video Interleave
Format profile                   : OpenDML
File size                        : 2.05 GiB
Duration                         : 1h 49mn
Overall bit rate                 : 2 686 Kbps
Movie name                       : Seksa.mnogo.ne.byvaet.2011.P.HDRip.IRONCLUB
Director                         : IRONCLUB
Genre                            : Drama / Comedy
Writing application              : VirtualDubMod 1.5.10.2 (build 2540/release)
Original source form/Name        : Movie
Copyright                        : http://ironclub.tv/

Video
ID                               : 0
Format                           : MPEG-4 Visual
Format profile                   : Streaming Video@L1
Format settings, BVOP            : Yes
Format settings, QPel            : No
Format settings, GMC             : No warppoints
Format settings, Matrix          : Custom
Codec ID                         : XVID
Codec ID/Hint                    : XviD
Duration                         : 1h 49mn
Bit rate                         : 1 772 Kbps
Width                            : 720 pixels
Height                           : 304 pixels
Display aspect ratio             : 2.35
Frame rate                       : 24.000 fps
Resolution                       : 24 bits
Colorimetry                      : 4:2:0
Scan type                        : Progressive
Bits/(Pixel*Frame)               : 0.337
Stream size                      : 1.35 GiB (66%)
Writing library                  : XviD 1.2.1 (UTC 2008-12-04)

Audio #1
ID                               : 1
Format                           : AC-3
Format/Info                      : Audio Coding 3
Codec ID                         : 2000
Duration                         : 1h 49mn
Bit rate mode                    : Constant
Bit rate                         : 448 Kbps
Channel(s)                       : 6 channels
Channel positions                : Front: L C R, Surround: L R, LFE
Sampling rate                    : 48.0 KHz
Stream size                      : 351 MiB (17%)
Alignment                        : Split accross interleaves
Interleave, duration             : 42 ms (1.00 video frame)
Interleave, preload duration     : 500 ms

Audio #2
ID                               : 2
Format                           : AC-3
Format/Info                      : Audio Coding 3
Codec ID                         : 2000
Duration                         : 1h 49mn
Bit rate mode                    : Constant
Bit rate                         : 448 Kbps
Channel(s)                       : 6 channels
Channel positions                : Front: L C R, Surround: L R, LFE
Sampling rate                    : 48.0 KHz
Stream size                      : 351 MiB (17%)
Alignment                        : Split accross interleaves
Interleave, duration             : 42 ms (1.00 video frame)
Interleave, preload duration     : 500 ms

Семпл: http://multi-up.com/723890
picpicpic
Для увеличения картинки щелкните мышкой по превью

Этот торрент недоступен для скачивания без регистрации, однако доступен по публичной magnet-ссылке (источники с публичных трекеров). Перед использованием ссылки прочтите, пожалуйста Пользовательское соглашение, а также как можно дольше оставайтесь на раздаче! Для того, чтобы скачать сам торрент-файл (который видит больше источников), а также для того, чтобы поблагодарить релизера, вам необходимо зарегистрироваться. Если регистрироваться лень - вы можете также попробовать скачать релиз по нашим партнерским ссылкам ниже.

[underverse.su].t18474.torrent
Трекер: Зарегистрирован   [ 25.06.2012 18:11 ]  

Статус: проверено (by Паукан at 25.06.2012 18:32)
Поблагодарили: 1 человек
Тип торрента: публичный - доступные источники с открытых трекеров: 
Размер: 2,05 GB (занимает 0,47 DVDR, для записи нужно 1 болванка DVDR/RW)
 
 

Яндекс.Метрика powered by Sphinx


В Н И М А Н И Е
Сайт не распространяет и не хранит электронные версии произведений, а лишь бесплатно и без коммерческой выгоды (не требуя взамен платы,
SMS и т.д.) предоставляет доступ к создаваемому пользователями каталогу ссылок на торрент-файлы, которые содержат только списки хеш-сумм.
Убедительная просьба с жалобами обращаться напрямую к пользователю, разместившему торрент файл.

Вверх