Loading...
Error

Подпольная империя / Boardwalk Empire (Сезон 2 / Серии 1-12) (Тимоти Ван Паттен, Аллен Култер, Джереми Подесва) [2011 г., драма, криминал, HDTVRip]

Статистика раздачи
Размер:  8,19 GB   |    Зарегистрирован:  4 года 7 месяцев   |    Скачан:  52 раза

Полного источника не было: 4 дня

Сидов:  0  |  0 KB/s  ]   Личеров:  1  |  0 KB/s  ]

* - сиды/пиры с внешних источников

   
 
Автор Сообщение

garry Пол:Муж

25-Июн-2012 10:37

Подпольная империя / Boardwalk Empire (Сезон 2 / Серии 1-12)


Год выпуска: 2011
Жанр: драма, криминал
Страна: США
Режиссер: Тимоти Ван Паттен, Аллен Култер, Джереми Подесва
В ролях: Стив Бушеми, Майкл Питт, Ши Уигхэм, Майкл Шеннон, Келли Макдоналд, Алекса Палладино, Майкл Стулбарг, Стивен Грэм, Винсент Пьяцца, Пас де ла Уэрта
Сюжет фильма:
1920 год. Через несколько часов Атлантик-Сити столица развлечений и порока, как и вся Америка, вступит в эпоху Сухого закона. Енох Наки Томпсон, днем городской казначей, а ночью хитроумный гангстер со связями на самом верху, решает воспользоваться ситуацией и получить баснословные прибыли на подпольной торговле алкоголем. Однако не он один жаждет обогатиться на новом промысле

Качество видео: HDTVRip

Продолжительность: ~01:00:00 x 12

Формат: avi
Видео: XviD, 720x400, 1357 kbps
Аудио #1: русский, многоголосый закадровый (профессиональный, "Первый Канал"), MP3 2.0, 128 kbps
Аудио #2: английский, оригинал, MP3 2.0, 128 kbps
Семпл: http://multi-up.com/566163

Релиз группы:

Код:

General
Complete name                    : D:\Video\Serials\Boardwalk Empire\Boardwalk.Empire.s02e11.HDTVRip.*другой трекер*.avi
Format                           : AVI
Format/Info                      : Audio Video Interleave
File size                        : 700 MiB
Duration                         : 1h 0mn
Overall bit rate                 : 1 627 Kbps
Writing application              : VirtualDubMod 1.5.10.2 (build 2540/release)
Writing library                  : VirtualDubMod build 2540/release

Video
ID                               : 0
Format                           : MPEG-4 Visual
Format profile                   : Streaming Video@L1
Format settings, BVOP            : Yes
Format settings, QPel            : No
Format settings, GMC             : No warppoints
Format settings, Matrix          : Default (MPEG)
Codec ID                         : XVID
Codec ID/Hint                    : XviD
Duration                         : 1h 0mn
Bit rate                         : 1 357 Kbps
Width                            : 720 pixels
Height                           : 400 pixels
Display aspect ratio             : 16/9
Frame rate                       : 23.976 fps
Resolution                       : 24 bits
Colorimetry                      : 4:2:0
Scan type                        : Progressive
Bits/(Pixel*Frame)               : 0.197
Stream size                      : 584 MiB (83%)
Writing library                  : XviD 64

Audio #1
ID                               : 1
Format                           : MPEG Audio
Format version                   : Version 1
Format profile                   : Layer 3
Codec ID                         : 55
Codec ID/Hint                    : MP3
Duration                         : 1h 0mn
Bit rate mode                    : Constant
Bit rate                         : 128 Kbps
Channel(s)                       : 2 channels
Sampling rate                    : 48.0 KHz
Resolution                       : 16 bits
Stream size                      : 55.1 MiB (8%)
Alignment                        : Aligned on interleaves
Interleave, duration             : 42 ms (1.00 video frame)
Interleave, preload duration     : 504 ms

Audio #2
ID                               : 2
Format                           : MPEG Audio
Format version                   : Version 1
Format profile                   : Layer 3
Codec ID                         : 55
Codec ID/Hint                    : MP3
Duration                         : 1h 0mn
Bit rate mode                    : Constant
Bit rate                         : 128 Kbps
Channel(s)                       : 2 channels
Sampling rate                    : 48.0 KHz
Resolution                       : 16 bits
Stream size                      : 55.1 MiB (8%)
Alignment                        : Aligned on interleaves
Interleave, duration             : 42 ms (1.00 video frame)
Interleave, preload duration     : 504 ms

picpicpic
Для увеличения картинки щелкните мышкой по превью

Этот торрент недоступен для скачивания без регистрации, однако доступен по публичной magnet-ссылке (источники с публичных трекеров). Перед использованием ссылки прочтите, пожалуйста Пользовательское соглашение, а также как можно дольше оставайтесь на раздаче! Для того, чтобы скачать сам торрент-файл (который видит больше источников), а также для того, чтобы поблагодарить релизера, вам необходимо зарегистрироваться. Если регистрироваться лень - вы можете также попробовать скачать релиз по нашим партнерским ссылкам ниже.

[underverse.su].t18472.torrent
Трекер: Зарегистрирован   [ 25.06.2012 10:37 ]  

Статус: проверено (by garry at 25.06.2012 10:38)
Поблагодарили: 2 человека
Тип торрента: публичный - доступные источники с открытых трекеров: 
Размер: 8,19 GB (занимает 1,87 DVDR, для записи нужно 2 болванки DVDR/RW)
 
 
Похожие темы
Форум Тема Автор Торрент Отв. Посл. сооб.
Зарубежные сериалы Подпольная империя / Boardwalk Empire (Сезон 1 / Серии 1-12) (Тимоти Ван Паттен, Аллен Култер, Джереми Подесва) [2010 г., драма, криминал, HDTVRip] garry
2 | 2

0 | 1849

63

12.06.2012 15:58

Зарубежные сериалы Подпольная империя / Boardwalk Empire / Сезон: 3 / Серии: 1-12 (12) (Тимоти Ван Паттен, Аллен Култер, Джереми Подесва) [2012 г., драма, криминал, WEBDLRip] MVO garry
1 | 0

5 | 4918

37

14.10.2013 16:10

Зарубежные сериалы Подпольная империя / Boardwalk Empire / Сезон: 4 / Серии: 1-12 (Тимоти Ван Паттен, Аллен Култер, Джереми Подесва) [2013 г., драма, криминал, HDTVRip] MVO + Original garry
1 | 0

2 | 2447

38

22.12.2013 11:24


Яндекс.Метрика powered by Sphinx


В Н И М А Н И Е
Сайт не распространяет и не хранит электронные версии произведений, а лишь бесплатно и без коммерческой выгоды (не требуя взамен платы,
SMS и т.д.) предоставляет доступ к создаваемому пользователями каталогу ссылок на торрент-файлы, которые содержат только списки хеш-сумм.
Убедительная просьба с жалобами обращаться напрямую к пользователю, разместившему торрент файл.

Вверх