Loading...
Error

Гражданин поэт. Прогон года [2012 г., документальный, DVDRip]

Статистика раздачи
Размер:  1,46 GB   |    Зарегистрирован:  4 года 3 месяца   |    Скачан:  7 раз

Полного источника не было: 22 часа

Сидов:  0  |  0 KB/s  ]   Личеров:  0  |  0 KB/s  ]

* - сиды/пиры с внешних источников

   
 
Автор Сообщение

Паукан Пол:Муж

24-Июн-2012 13:17

Гражданин поэт. Прогон года


Год выпуска: 2012
Жанр: документальный
Страна: Россия
Режиссер: Вера Кричевская
В ролях: Михаил Ефремов, Андрей Васильев, Дмитрий Быков
Сюжет фильма:
«Гражданин поэт. Прогон года» — это не продолжение одноименного сатирического проекта, ставшего бешено популярным в России в 2011—2012 гг. И даже не его итог. Это фильм-воспоминание о самом живом, мощном и интересном годе в политической жизни страны за последние 20 лет. Фильм-размышление о причинах стремительного пробуждения гражданской позиции миллионов людей. Фильм-послание в наше недалекое будущее.
Качество видео: DVDRip

Продолжительность: 01:29:51

Формат: avi
Видео: XviD, 720x400, 1862 kbps
Аудио: русский, оригинал, AC3 5.1, 448 kbps

Код:

General
Complete name                    : D:\Video\Sources\Grazhdanin.poet.Progon.goda.2012.XviD.DVDRip.avi
Format                           : AVI
Format/Info                      : Audio Video Interleave
File size                        : 1.46 GiB
Duration                         : 1h 29mn
Overall bit rate                 : 2 320 Kbps
Movie name                       : Grazhdanin.poet.Progon.goda.2012_XviD.1.45_[youtracker]_by_avproh
Writing application              : FairUse Wizard - http://fairusewizard.com
Copyright                        : avproh

Video
ID                               : 0
Format                           : MPEG-4 Visual
Format profile                   : Streaming Video@L1
Format settings, BVOP            : Yes
Format settings, QPel            : No
Format settings, GMC             : No warppoints
Format settings, Matrix          : Custom
Codec ID                         : XVID
Codec ID/Hint                    : XviD
Duration                         : 1h 29mn
Bit rate                         : 1 862 Kbps
Width                            : 720 pixels
Height                           : 400 pixels
Display aspect ratio             : 16/9
Frame rate                       : 25.000 fps
Resolution                       : 24 bits
Colorimetry                      : 4:2:0
Scan type                        : Progressive
Bits/(Pixel*Frame)               : 0.259
Stream size                      : 1.17 GiB (80%)
Writing library                  : XviD 65

Audio
ID                               : 1
Format                           : AC-3
Format/Info                      : Audio Coding 3
Codec ID                         : 2000
Duration                         : 1h 29mn
Bit rate mode                    : Constant
Bit rate                         : 448 Kbps
Channel(s)                       : 6 channels
Channel positions                : Front: L C R, Surround: L R, LFE
Sampling rate                    : 48.0 KHz
Stream size                      : 288 MiB (19%)
Alignment                        : Split accross interleaves
Interleave, duration             : 40 ms (1.00 video frame)
Interleave, preload duration     : 500 ms

Семпл: http://multi-up.com/723043
picpicpic
Для увеличения картинки щелкните мышкой по превью

Этот торрент недоступен для скачивания без регистрации, однако доступен по публичной magnet-ссылке (источники с публичных трекеров). Перед использованием ссылки прочтите, пожалуйста Пользовательское соглашение, а также как можно дольше оставайтесь на раздаче! Для того, чтобы скачать сам торрент-файл (который видит больше источников), а также для того, чтобы поблагодарить релизера, вам необходимо зарегистрироваться. Если регистрироваться лень - вы можете также попробовать скачать релиз по нашим партнерским ссылкам ниже.

[underverse.su].t18461.torrent
Трекер: Зарегистрирован   [ 27.08.2012 09:21 ]  

Статус: проверено (by garry at 27.08.2012 09:22)
Поблагодарили: 1 человек
Тип торрента: публичный - доступные источники с открытых трекеров: 
Размер: 1,46 GB (занимает 1/3 DVDR, для записи нужно 1 болванка DVDR/RW)
 
 
Похожие темы
Форум Тема Автор Торрент Отв. Посл. сооб.
Зарубежное кино [DVDRip, Low-Res HDRip, и т.д.] Гражданин гангстер / Citizen Gangster (Нэйтан Морландо / Nathan Morlando) [2011 г., криминал, драма, HDRip] AVO + Original + Sub (Rus,Eng) RG NewCinema
0 | 0

0 | 992

17

03.07.2013 07:11

Зарубежное кино [DVDRip, Low-Res HDRip, и т.д.] Гражданин гангстер / Citizen Gangster (Нэйтан Морландо / Nathan Morlando) [2011 г., криминал, драма, HDRip] MVO + Original 90ytr90
2 | 0

0 | 356

7

30.12.2013 18:01

Классика зарубежного кино HQ Гражданин Кейн / Citizen Kane (Орсон Уэллс) [1941 г., драма, детектив, BDRip] 3xMVO + Original HQ Underverse HQ Underverse
1 | 0

1 | 1349

27

18.10.2013 09:54

xUSSR сериалы Гражданин Никто [серии 01-16 из 16] (Владимир Янковский) [2016 г., детектив, HDTVRip] 90ytr90
166 | 77

0 | 353

5

07.11.2016 21:22

T xUSSR сериалы Гражданин Никто [серии 01-20 из 20] (Владимир Янковский) [2016 г., детектив, SATRip] Original (Rus) + hardsub (Ukr) 90ytr90
874 | 144

0 | 243

9

07.11.2016 21:15


Яндекс.Метрика powered by Sphinx


В Н И М А Н И Е
Сайт не распространяет и не хранит электронные версии произведений, а лишь бесплатно и без коммерческой выгоды (не требуя взамен платы,
SMS и т.д.) предоставляет доступ к создаваемому пользователями каталогу ссылок на торрент-файлы, которые содержат только списки хеш-сумм.
Убедительная просьба с жалобами обращаться напрямую к пользователю, разместившему торрент файл.

Вверх