Loading...
Error

Хищник 2 / Predator 2 (Стивен Хопкинс) [1990 г., фантастика, боевик, триллер, HDRip] (Rus, Ukr, Eng) HQ Underverse

Статистика раздачи
Размер:  2,18 GB   |    Зарегистрирован:  4 года 5 месяцев   |    Скачан:  3 раза

Полного источника не было: 2 года 4 месяца

Сидов:  0  |  0 KB/s  ]   Личеров:  0  |  0 KB/s  ]

* - сиды/пиры с внешних источников

   
 
Автор Сообщение

HQ Underverse 

24-Июн-2012 09:48

Хищник 2 / Predator 2


Год выпуска: 1990
Жанр: фантастика, боевик, триллер
Страна: США
Режиссер: Стивен Хопкинс
В ролях: Кевин Питер Холл, Дэнни Гловер, Гэри Бьюзи, Рубен Бладес, Мария Кончита Алонсо, Билл Пэкстон, Роберт Дави, Адам Болдуин, Кент МакКорд, Мортон Дауни мл.
Сюжет фильма:
Харриган крутой полицейский отдела по борьбе с наркотиками полиции Лос Анджелеса. Ему поручено расследование серии убийств крупных криминальных авторитетов города. Все убийства совершены в извращенной форме и пахнут неприкрытым садизмом. После проведения экспертиз и расследований становится ясно, что убийство дело рук существа, не имеющего ничего общего с человеком.

Землю опять посетил межпланетный охотник, но ему придется столкнуться с существом еще более опасным, чем он сам с человеком. Харриган выслеживает охотника, постепенно сам становясь охотником. Один на один, как настоящий воин, он ведет бескомпромиссную битву за сохранение чести и права человека не быть существом, на которое можно охотиться.

  • Мировая премьера: 19 ноября 1990

|
Качество видео: HDRip

Продолжительность: 01:47:59

Формат: avi
Видео: XviD, 704x384, 2097 kbps
Аудио #1: русский, дублированный [лицензия], AC3 5.1, 384 kbps
Аудио #2: английский, оригинал, AC3 5.1, 384 kbps
Аудио #3: русский, многоголосый закадровый [профессиональный, Киномания], AC3 5.1, 384 kbps (отдельным файлом: здесь)
Аудио #4: русский, многоголосый закадровый [профессиональный, R5], AC3 5.1, 384 kbps (отдельным файлом: здесь)
Аудио #5: украинский, многоголосый закадровый [профессиональный, 1+1], AC3 5.1, 448 kbps (отдельным файлом: здесь)
Субтитры #1: внешние, SRT, английский (на narod.ru)
Субтитры #2: внешние, SRT, русский (на narod.ru)

Код:

General
Complete name                    : D:\Video\HQ-Rips\Хищник 2\Predator.2.1990.HDRip.XviD.AC3.Rus.D.Eng.O.HQ.Underverse.avi
Format                           : AVI
Format/Info                      : Audio Video Interleave
Format profile                   : OpenDML
File size                        : 2.18 GiB
Duration                         : 1h 47mn
Overall bit rate                 : 2 883 Kbps
Writing application              : VirtualDubMod 1.5.10.2 (build 2542/release)
Writing library                  : VirtualDubMod build 2542/release

Video
ID                               : 0
Format                           : MPEG-4 Visual
Format profile                   : Streaming Video@L1
Format settings, BVOP            : Yes
Format settings, QPel            : No
Format settings, GMC             : No warppoints
Format settings, Matrix          : Custom
Muxing mode                      : Packed bitstream
Codec ID                         : XVID
Codec ID/Hint                    : XviD
Duration                         : 1h 47mn
Bit rate                         : 2 098 Kbps
Width                            : 704 pixels
Height                           : 384 pixels
Display aspect ratio             : 16/9
Frame rate                       : 23.976 fps
Resolution                       : 24 bits
Colorimetry                      : 4:2:0
Scan type                        : Progressive
Bits/(Pixel*Frame)               : 0.324
Stream size                      : 1.58 GiB (73%)
Writing library                  : XviD 64

Audio #1
ID                               : 1
Format                           : AC-3
Format/Info                      : Audio Coding 3
Codec ID                         : 2000
Duration                         : 1h 47mn
Bit rate mode                    : Constant
Bit rate                         : 384 Kbps
Channel(s)                       : 6 channels
Channel positions                : Front: L C R, Surround: L R, LFE
Sampling rate                    : 48.0 KHz
Stream size                      : 297 MiB (13%)
Alignment                        : Split accross interleaves
Interleave, duration             : 42 ms (1.00 video frame)
Interleave, preload duration     : 500 ms

Audio #2
ID                               : 2
Format                           : AC-3
Format/Info                      : Audio Coding 3
Codec ID                         : 2000
Duration                         : 1h 47mn
Bit rate mode                    : Constant
Bit rate                         : 384 Kbps
Channel(s)                       : 6 channels
Channel positions                : Front: L C R, Surround: L R, LFE
Sampling rate                    : 48.0 KHz
Stream size                      : 297 MiB (13%)
Alignment                        : Split accross interleaves
Interleave, duration             : 42 ms (1.00 video frame)
Interleave, preload duration     : 500 ms

General
Complete name                    : D:\Video\HQ-Rips\Хищник 2\Predator.2.1990.HDRip.XviD.AC3.Rus.D.Eng.O.HQ.Underverse.RUS.MVO.KINOMANIA.ac3
Format                           : AC-3
Format/Info                      : Audio Coding 3
File size                        : 297 MiB
Duration                         : 1h 48mn
Overall bit rate                 : 384 Kbps

Audio
Format                           : AC-3
Format/Info                      : Audio Coding 3
Duration                         : 1h 48mn
Bit rate mode                    : Constant
Bit rate                         : 384 Kbps
Channel(s)                       : 6 channels
Channel positions                : Front: L C R, Surround: L R, LFE
Sampling rate                    : 48.0 KHz
Stream size                      : 297 MiB (100%)

General
Complete name                    : D:\Video\HQ-Rips\Хищник 2\Predator.2.1990.HDRip.XviD.AC3.Rus.D.Eng.O.HQ.Underverse.RUS.MVO.R5.ac3
Format                           : AC-3
Format/Info                      : Audio Coding 3
File size                        : 297 MiB
Duration                         : 1h 48mn
Overall bit rate                 : 384 Kbps

Audio
Format                           : AC-3
Format/Info                      : Audio Coding 3
Duration                         : 1h 48mn
Bit rate mode                    : Constant
Bit rate                         : 384 Kbps
Channel(s)                       : 6 channels
Channel positions                : Front: L C R, Surround: L R, LFE
Sampling rate                    : 48.0 KHz
Stream size                      : 297 MiB (100%)

General
Complete name                    : D:\Video\HQ-Rips\Хищник 2\Predator.2.1990.HDRip.XviD.AC3.Rus.D.Eng.O.HQ.Underverse.UKR.ac3
Format                           : AC-3
Format/Info                      : Audio Coding 3
File size                        : 346 MiB
Duration                         : 1h 48mn
Overall bit rate                 : 448 Kbps

Audio
Format                           : AC-3
Format/Info                      : Audio Coding 3
Duration                         : 1h 48mn
Bit rate mode                    : Constant
Bit rate                         : 448 Kbps
Channel(s)                       : 6 channels
Channel positions                : Front: L C R, Surround: L R, LFE
Sampling rate                    : 48.0 KHz
Stream size                      : 346 MiB (100%)

Релиз группы:
picpicpic
Для увеличения картинки щелкните мышкой по превью

Этот торрент недоступен для скачивания без регистрации, однако доступен по публичной magnet-ссылке (источники с публичных трекеров). Перед использованием ссылки прочтите, пожалуйста Пользовательское соглашение, а также как можно дольше оставайтесь на раздаче! Для того, чтобы скачать сам торрент-файл (который видит больше источников), а также для того, чтобы поблагодарить релизера, вам необходимо зарегистрироваться. Если регистрироваться лень - вы можете также попробовать скачать релиз по нашим партнерским ссылкам ниже.

[underverse.su].t18458.torrent
Трекер: Зарегистрирован   [ 24.06.2012 09:48 ]  

Статус: проверено (by HQ Underverse at 24.06.2012 09:49)
Поблагодарили: пока никто не поблагодарил...
Тип торрента: публичный - доступные источники с открытых трекеров: 
Размер: 2,18 GB (занимает 1/2 DVDR, для записи нужно 1 болванка DVDR/RW)
 
 

SergBond Пол:Муж

30-Сен-2013 10:02

качается...
оччччень медленно...
добавьте скорости, пжалста!

Яндекс.Метрика powered by Sphinx


В Н И М А Н И Е
Сайт не распространяет и не хранит электронные версии произведений, а лишь бесплатно и без коммерческой выгоды (не требуя взамен платы,
SMS и т.д.) предоставляет доступ к создаваемому пользователями каталогу ссылок на торрент-файлы, которые содержат только списки хеш-сумм.
Убедительная просьба с жалобами обращаться напрямую к пользователю, разместившему торрент файл.

Вверх