Loading...
Error

Кого хочу я больше / Cosa voglio di piu (Сильвио Сольдини) [2010 г., драма, DVDRip]

Статистика раздачи
Размер:  2,05 GB   |    Зарегистрирован:  4 года 5 месяцев   |    Скачан:  9 раз

Полного источника не было: 4 года 2 месяца

Сидов:  0  |  0 KB/s  ]   Личеров:  0  |  0 KB/s  ]

* - сиды/пиры с внешних источников

   
 
Автор Сообщение

RG NewCinema 

24-Июн-2012 00:29

Кого хочу я больше / Cosa voglio di piu


Год выпуска: 2010
Жанр: драма
Страна: Италия , Швейцария
Режиссер: Сильвио Сольдини
В ролях: Альба Рорвакер, Пьерфранческо Фавино, Тереза Сапонанджело, Джузеппе Баттистон, Фабио Тройяно, Моника Нэппо, Татьяна Лепоре, Серджо Солли, Джизелла Буринато, Джиджио Алберти
Сюжет фильма:
У Анны есть все для счастья: красивый дом, успешная работа и любимый человек. Но неожиданно у нее начинается роман с официантом Домиником. Оказывается, между ее рассуждениями о любви и настоящей страстью не было ничего общего! Ее невозможно планировать, ею нельзя управлять Но Доминик женат, он отец двоих детей, и выясняется, что настоящая любовь возможна только два часа в неделю.

  • Мировая премьера: 15 февраля 2010
  • Российская премьера: 14 июля 2011, Русский репортаж

|
Качество видео: DVDRip

Продолжительность: 01:59:24

Формат: avi
Видео: XviD, 720x304, 1999 kbps
Аудио: русский, многоголосый закадровый [профессиональный], AC3 5.1, 448 kbps

Код:

General
Complete name                    : D:\Video\Sources\Kogo.hochu.ja.bolshe.2010.P.DVDRip.avi
Format                           : AVI
Format/Info                      : Audio Video Interleave
Format profile                   : OpenDML
File size                        : 2.05 GiB
Duration                         : 1h 59mn
Overall bit rate                 : 2 460 Kbps
Writing application              : VirtualDubMod 1.5.10.2 (build 2540/release)

Video
ID                               : 0
Format                           : MPEG-4 Visual
Format profile                   : Streaming Video@L1
Format settings, BVOP            : Yes
Format settings, QPel            : No
Format settings, GMC             : No warppoints
Format settings, Matrix          : Custom
Codec ID                         : XVID
Codec ID/Hint                    : XviD
Duration                         : 1h 59mn
Bit rate                         : 2 000 Kbps
Width                            : 720 pixels
Height                           : 304 pixels
Display aspect ratio             : 2.35
Frame rate                       : 25.000 fps
Resolution                       : 24 bits
Colorimetry                      : 4:2:0
Scan type                        : Progressive
Bits/(Pixel*Frame)               : 0.365
Stream size                      : 1.67 GiB (81%)
Writing library                  : XviD 1.2.1 (UTC 2008-12-04)

Audio
ID                               : 1
Format                           : AC-3
Format/Info                      : Audio Coding 3
Codec ID                         : 2000
Duration                         : 1h 59mn
Bit rate mode                    : Constant
Bit rate                         : 448 Kbps
Channel(s)                       : 6 channels
Channel positions                : Front: L C R, Surround: L R, LFE
Sampling rate                    : 48.0 KHz
Stream size                      : 383 MiB (18%)
Alignment                        : Split accross interleaves
Interleave, duration             : 40 ms (1.00 video frame)
Interleave, preload duration     : 500 ms

Семпл: http://multi-up.com/723075
picpicpic
Для увеличения картинки щелкните мышкой по превью

Этот торрент недоступен для скачивания без регистрации, однако доступен по публичной magnet-ссылке (источники с публичных трекеров). Перед использованием ссылки прочтите, пожалуйста Пользовательское соглашение, а также как можно дольше оставайтесь на раздаче! Для того, чтобы скачать сам торрент-файл (который видит больше источников), а также для того, чтобы поблагодарить релизера, вам необходимо зарегистрироваться. Если регистрироваться лень - вы можете также попробовать скачать релиз по нашим партнерским ссылкам ниже.

[underverse.su].t18456.torrent
Трекер: Зарегистрирован   [ 24.06.2012 00:29 ]  

Статус: проверено (by Паукан at 24.06.2012 07:02)
Поблагодарили: пока никто не поблагодарил...
Тип торрента: публичный - доступные источники с открытых трекеров: 
Размер: 2,05 GB (занимает 0,47 DVDR, для записи нужно 1 болванка DVDR/RW)
 
 
Похожие темы
Форум Тема Автор Торрент Отв. Посл. сооб.
Зарубежное кино [DVDRip, Low-Res HDRip, и т.д.] Кого хочу я больше / Come Undone / Cosa voglio di piu (Сильвио Сольдини) [2010, драма, HDRip] [MVO] [Лицензия] Greshnik
1 | 0

1 | 775

18

01.08.2012 11:45

ALEKSANDR288Пол:Муж

24-Июн-2012 04:07

:beer:

Яндекс.Метрика powered by Sphinx


В Н И М А Н И Е
Сайт не распространяет и не хранит электронные версии произведений, а лишь бесплатно и без коммерческой выгоды (не требуя взамен платы,
SMS и т.д.) предоставляет доступ к создаваемому пользователями каталогу ссылок на торрент-файлы, которые содержат только списки хеш-сумм.
Убедительная просьба с жалобами обращаться напрямую к пользователю, разместившему торрент файл.

Вверх