Loading...
Error

Белоснежка и принц эльфов / Grimm`s Snow White (Рэйчел Голденберг) [2012 г., фэнтези, приключения, DVDRip]

Статистика раздачи
Размер:  1,46 GB   |    Зарегистрирован:  4 года 5 месяцев   |    Скачан:  32 раза

Полного источника не было: 7 месяцев

Сидов:  0  |  0 KB/s  ]   Личеров:  0  |  0 KB/s  ]

* - сиды/пиры с внешних источников

   
 
Автор Сообщение

RG NewCinema 

23-Июн-2012 08:48

Белоснежка и принц эльфов / Grimm`s Snow White


Год выпуска: 2012
Жанр: фэнтези, приключения
Страна: США
Режиссер: Рэйчел Голденберг
В ролях: Элиза Беннетт, Джейн Марч, Джэми Кинг, Отто Янкович, Бен Мэддокс, Sebastian Wimmer, Alan Burgon, Фрауке Стейнер
Сюжет фильма:
После того, как свирепая рептилия-чудовище убивает Короля, его Королева берёт королевство под контроль. Она пытается убить свою прекрасную падчерицу Белоснежку, но та убегает в зачарованный лес.

  • Мировая премьера: 13 марта 2012

|
Качество видео: DVDRip

Продолжительность: 01:30:33

Формат: avi
Видео: XviD, 720x400, 1912 kbps
Аудио: русский, многоголосый закадровый [профессиональный], AC3 5.1, 384 kbps

Код:

General
Complete name                    : D:\Video\Sources\Belosnezhka.i.princ.jelfov.2012.P.DVDRip.avi
Format                           : AVI
Format/Info                      : Audio Video Interleave
File size                        : 1.46 GiB
Duration                         : 1h 30mn
Overall bit rate                 : 2 306 Kbps
Writing application              : VirtualDubMod 1.5.10.3 | www.virtualdub-fr.org || (build 2550/release)

Video
ID                               : 0
Format                           : MPEG-4 Visual
Format profile                   : Streaming Video@L1
Format settings, BVOP            : Yes
Format settings, QPel            : No
Format settings, GMC             : No warppoints
Format settings, Matrix          : Custom
Codec ID                         : XVID
Codec ID/Hint                    : XviD
Duration                         : 1h 30mn
Bit rate                         : 1 913 Kbps
Width                            : 720 pixels
Height                           : 400 pixels
Display aspect ratio             : 16/9
Frame rate                       : 25.000 fps
Resolution                       : 24 bits
Colorimetry                      : 4:2:0
Scan type                        : Progressive
Bits/(Pixel*Frame)               : 0.266
Stream size                      : 1.21 GiB (83%)
Writing library                  : XviD 1.2.1 (UTC 2008-12-04)

Audio
ID                               : 1
Format                           : AC-3
Format/Info                      : Audio Coding 3
Codec ID                         : 2000
Duration                         : 1h 30mn
Bit rate mode                    : Constant
Bit rate                         : 384 Kbps
Channel(s)                       : 6 channels
Channel positions                : Front: L C R, Surround: L R, LFE
Sampling rate                    : 48.0 KHz
Stream size                      : 249 MiB (17%)
Alignment                        : Split accross interleaves
Interleave, duration             : 40 ms (1.00 video frame)
Interleave, preload duration     : 500 ms

Семпл: http://multi-up.com/722637
picpicpic
Для увеличения картинки щелкните мышкой по превью

Этот торрент недоступен для скачивания без регистрации, однако доступен по публичной magnet-ссылке (источники с публичных трекеров). Перед использованием ссылки прочтите, пожалуйста Пользовательское соглашение, а также как можно дольше оставайтесь на раздаче! Для того, чтобы скачать сам торрент-файл (который видит больше источников), а также для того, чтобы поблагодарить релизера, вам необходимо зарегистрироваться. Если регистрироваться лень - вы можете также попробовать скачать релиз по нашим партнерским ссылкам ниже.

[underverse.su].t18447.torrent
Трекер: Зарегистрирован   [ 23.06.2012 08:48 ]  

Статус: проверено (by garry at 23.06.2012 08:50)
Поблагодарили: 2 человека
Тип торрента: публичный - доступные источники с открытых трекеров: 
Размер: 1,46 GB (занимает 1/3 DVDR, для записи нужно 1 болванка DVDR/RW)
 
 
Похожие темы
Форум Тема Автор Торрент Отв. Посл. сооб.
Зарубежное кино [DVDRip, Low-Res HDRip, и т.д.] Белоснежка: Месть гномов / Mirror Mirror (Тарсем Синх) [2012 г., фэнтези, драма, комедия, приключения, HDRip] [лицензия] RG NewCinema
1 | 0

2 | 1149

139

05.10.2012 11:32

Зарубежное кино [DVDRip, Low-Res HDRip, и т.д.] Белоснежка и охотник / Snow White and the Huntsman (Руперт Сандерс) [2012 г., фэнтези, боевик, драма, приключения, HDRip] Dub + Original 90ytr90
1 | 0

2 | 697

50

05.10.2012 11:34

Зарубежное кино [DVDRip, Low-Res HDRip, и т.д.] Белоснежка и охотник / Snow White and the Huntsman [Extended] (Руперт Сандерс) [2012 г., фэнтези, боевик, драма, приключения, HDRip] Dub 90ytr90
1 | 0

1 | 702

44

05.01.2013 03:56

Зарубежное кино [DVDRip, Low-Res HDRip, и т.д.] Белоснежка: Смертельное лето / Snow White: A Deadly Summer (Дэвид ДеКото) [2012 г., ужасы, HDRip] VO [Андрей Дольский] RG NewCinema
1 | 0

1 | 987

20

27.10.2012 12:43

Зарубежное кино [DVDRip, Low-Res HDRip, и т.д.] Белоснежка и охотник [Театральная версия] / Snow White and the Huntsman [Theatrical Cut] (Руперт Сандерс) [2012 г., фэнтези, боевик, драма, приключения, HDRip] Dub Garnett
17 | 0

0 | 671

18

07.12.2012 13:10

Зарубежное кино [DVDRip, Low-Res HDRip, и т.д.] Белоснежка и охотник [Расширенная версия] / Snow White and the Huntsman [Extended Cut] (Руперт Сандерс) [2012 г., фэнтези, боевик, драма, приключения, BDRip-AVC] Dub + Subs (rus, eng) Garnett
474 | 1

1 | 1662

68

29.01.2013 10:32

Зарубежное кино [DVDRip, Low-Res HDRip, и т.д.] Белоснежка и Охотник 2 / The Huntsman: Winter's War (Седрик Николя-Троян / Cedric Nicolas-Troyan) [2016 г., фэнтези, приключения, BDRip] [Extended Cut] Dub + hardsub (Rus) 90ytr90
57 | 4

0 | 461

5

08.08.2016 16:28

Зарубежное кино [DVDRip, Low-Res HDRip, и т.д.] Белоснежка и Охотник 2 / The Huntsman: Winter's War (Седрик Николя-Троян / Cedric Nicolas-Troyan) [2016 г., фэнтези, приключения, BDRip] [Theatrical Cut] Dub + hardsub (Rus) 90ytr90
17 | 2

0 | 497

4

08.08.2016 16:40

Зарубежное кино [DVDRip, Low-Res HDRip, и т.д.] Белоснежка и Охотник 2 / The Huntsman: Winter's War (Седрик Николя-Троян / Cedric Nicolas-Troyan) [2016 г., фэнтези, приключения, BDRip] [Extended Cut] Dub 90ytr90
179 | 6

0 | 464

10

11.08.2016 19:51

Зарубежное кино HQ Белоснежка и охотник / Snow White and the Huntsman (Руперт Сандерс) [2012 г., фэнтези, боевик, драма, приключения, HDRip] Dub + Original Eng(ext) + Sub(Rus,Eng) HQ Underverse HQ Underverse
0 | 0

3 | 1008

61

10.10.2012 07:12


Яндекс.Метрика powered by Sphinx


В Н И М А Н И Е
Сайт не распространяет и не хранит электронные версии произведений, а лишь бесплатно и без коммерческой выгоды (не требуя взамен платы,
SMS и т.д.) предоставляет доступ к создаваемому пользователями каталогу ссылок на торрент-файлы, которые содержат только списки хеш-сумм.
Убедительная просьба с жалобами обращаться напрямую к пользователю, разместившему торрент файл.

Вверх