Loading...
Error

Притворись моим мужем / You May Not Kiss the Bride (Роб Хедден) [2011 г., мелодрама, комедия, HDRip]

Статистика раздачи
Размер:  1,37 GB   |    Зарегистрирован:  4 года 5 месяцев   |    Скачан:  9 раз

Полного источника не было: 4 года 2 месяца

Сидов:  0  |  0 KB/s  ]   Личеров:  0  |  0 KB/s  ]

* - сиды/пиры с внешних источников

   
 
Автор Сообщение

RG NewCinema 

23-Июн-2012 08:44

Притворись моим мужем / You May Not Kiss the Bride


Год выпуска: 2011
Жанр: мелодрама, комедия
Страна: США
Режиссер: Роб Хедден
В ролях: Дэйв Эннэйбл, Кэтрин МакФи, Роб Шнайдер, Мена Сувари, Кэти Бейтс, Кен Давитян, Тиа Каррере, Кевин Данн, Винни Джонс, Стивен Тоболовски
Сюжет фильма:
Скромному фотографу Брайану Лайтхаусу не повезло. Совершенно неожиданно он оказался в долгу перед обосновавшимся в США хорватским криминальным авторитетом Вадиком Никитиным. Теперь Брайану нужно жениться на дочери бандита Маше, чтобы та смогла беспрепятственно получить американское гражданство, а потом спокойно развестись.

Есть и другое условие: брак браком, но к невесте горе-жених и пальцем не должен прикасаться. И это самая непростая часть договора, потому что девушка ослепительная красавица. Дело осложняется и тем, что во время медового месяца на далеком экзотическом острове новоиспеченную жену похищают неизвестные. Ее возвращение становится для Брайана вопросом жизни и смерти

  • Мировая премьера: 6 апреля 2011

/
Качество видео: HDRip

Продолжительность: 01:40:10

Формат: avi
Видео: XviD, 720x400, 1759 kbps
Аудио: русский, многоголосый закадровый [профессиональный], AC3 2.0, 192 kbps

Код:

General
Complete name                    : D:\Video\Sources\Pritvoris.moim.muzhem.2011.HDRip.XviD.AC-3.P.Rus.1400MB.avi
Format                           : AVI
Format/Info                      : Audio Video Interleave
File size                        : 1.37 GiB
Duration                         : 1h 40mn
Overall bit rate                 : 1 960 Kbps
Writing application              : VirtualDubMod 1.5.10.2 (build 2540/release)

Video
ID                               : 0
Format                           : MPEG-4 Visual
Format profile                   : Streaming Video@L1
Format settings, BVOP            : Yes
Format settings, QPel            : No
Format settings, GMC             : No warppoints
Format settings, Matrix          : Default (H.263)
Codec ID                         : XVID
Codec ID/Hint                    : XviD
Duration                         : 1h 40mn
Bit rate                         : 1 759 Kbps
Width                            : 720 pixels
Height                           : 400 pixels
Display aspect ratio             : 16/9
Frame rate                       : 24.000 fps
Resolution                       : 24 bits
Colorimetry                      : 4:2:0
Scan type                        : Progressive
Bits/(Pixel*Frame)               : 0.254
Stream size                      : 1.23 GiB (90%)
Writing library                  : XviD 1.2.1 (UTC 2008-12-04)

Audio
ID                               : 1
Format                           : AC-3
Format/Info                      : Audio Coding 3
Codec ID                         : 2000
Duration                         : 1h 40mn
Bit rate mode                    : Constant
Bit rate                         : 192 Kbps
Channel(s)                       : 2 channels
Channel positions                : L R
Sampling rate                    : 48.0 KHz
Stream size                      : 138 MiB (10%)
Alignment                        : Split accross interleaves
Interleave, duration             : 42 ms (1.00 video frame)
Interleave, preload duration     : 500 ms

Семпл: http://multi-up.com/722763
picpicpic
Для увеличения картинки щелкните мышкой по превью

Этот торрент недоступен для скачивания без регистрации, однако доступен по публичной magnet-ссылке (источники с публичных трекеров). Перед использованием ссылки прочтите, пожалуйста Пользовательское соглашение, а также как можно дольше оставайтесь на раздаче! Для того, чтобы скачать сам торрент-файл (который видит больше источников), а также для того, чтобы поблагодарить релизера, вам необходимо зарегистрироваться. Если регистрироваться лень - вы можете также попробовать скачать релиз по нашим партнерским ссылкам ниже.

[underverse.su].t18446.torrent
Трекер: Зарегистрирован   [ 23.06.2012 08:44 ]  

Статус: проверено (by garry at 23.06.2012 08:50)
Поблагодарили: пока никто не поблагодарил...
Тип торрента: публичный - доступные источники с открытых трекеров: 
Размер: 1,37 GB (занимает 0,31 DVDR, для записи нужно 1 болванка DVDR/RW)
 
 
Похожие темы
Форум Тема Автор Торрент Отв. Посл. сооб.
Зарубежное кино [DVDRip, Low-Res HDRip, и т.д.] Притворись моей женой / Just Go with It (Деннис Дуган) [2011 г., мелодрама, комедия, DVDRip ] maddd
1 | 0

0 | 938

28

13.04.2011 09:15

Зарубежное кино [DVDRip, Low-Res HDRip, и т.д.] Притворись моей женой / Just Go with It (Деннис Дуган) [2011 г., мелодрама, комедия, BDRip] H. Ledger
22 | 0

0 | 591

32

10.07.2012 01:35

Зарубежное кино [DVDRip, Low-Res HDRip, и т.д.] Притворись моим мужем / You May Not Kiss the Bride (Роб Хедден) [2011 г., мелодрама, комедия, HDRip] RG NewCinema
22 | 0

1 | 591

29

21.07.2012 13:29

Зарубежное кино [DVDRip, Low-Res HDRip, и т.д.] Притворись моим мужем / You May Not Kiss the Bride (Роб Хедден) [2012 г., мелодрама, комедия, приключения, HDRip-AVC] Greshnik
4 | 0

0 | 821

30

24.07.2012 15:16

Зарубежное кино [DVDRip, Low-Res HDRip, и т.д.] Притворись моим парнем / 20 ans d'ecart (Давид Моро) [2013 г., комедия, HDRip] Dub [iTunes Russia] Паукан
30 | 1

0 | 1149

45

23.09.2013 08:21

Зарубежное кино [DVDRip, Low-Res HDRip, и т.д.] Притворись моим парнем / 20 ans d'ecart (Давид Моро) [2013 г., комедия, BDRip-AVC] DUB | iTunes Russia Печаль'ka
0 | 0

0 | 366

15

24.09.2013 13:06

Зарубежное кино [DVDRip, Low-Res HDRip, и т.д.] Притворись моим парнем / 20 ans d'ecart (Давид Моро / David Moreau) [2013 г., комедия, BDRip-AVC] Dub (iTunes Russia) + Original 90ytr90
6 | 0

0 | 1082

20

28.09.2013 11:27

Зарубежное кино [HDDVDRip / BDRip / WEB-DL / HDTV 1080/720р] Притворись моим парнем / 20 ans d'ecart (Давид Моро / David Moreau) [2013 г., комедия, BDRip 720p] Dub (iTunes Russia) + Original 90ytr90
0 | 0

1 | 1175

14

03.10.2013 08:49


Яндекс.Метрика powered by Sphinx


В Н И М А Н И Е
Сайт не распространяет и не хранит электронные версии произведений, а лишь бесплатно и без коммерческой выгоды (не требуя взамен платы,
SMS и т.д.) предоставляет доступ к создаваемому пользователями каталогу ссылок на торрент-файлы, которые содержат только списки хеш-сумм.
Убедительная просьба с жалобами обращаться напрямую к пользователю, разместившему торрент файл.

Вверх