Loading...
Error

Вспоминая моих печальных шлюх / Memoria de mis putas tristes (Хеннинг Карлсен) [2011 г., мелодрама, DVDRip]

Статистика раздачи
Размер:  1,46 GB   |    Зарегистрирован:  4 года 5 месяцев   |    Скачан:  17 раз

Полного источника не было: 5 месяцев 9 дней

Сидов:  0  |  0 KB/s  ]   Личеров:  0  |  0 KB/s  ]

* - сиды/пиры с внешних источников

   
 
Автор Сообщение

RG NewCinema 

21-Июн-2012 18:39

Вспоминая моих печальных шлюх / Memoria de mis putas tristes


Год выпуска: 2011
Жанр: мелодрама
Страна: США
Режиссер: Хеннинг Карлсен
В ролях: Джеральдин Чаплин, Анхела Молина, Эмилио Эчеваррия, Доминика Палета, Алехандра Баррош, Оливия Молина
Сюжет фильма:
Главный герой журналист, человек преклонного возраста, который ни разу не испытывал настоящего глубокого чувства к женщине, предпочитая платить за секс. И теперь, встретившись с юной девушкой, он понял, что впервые полюбил. Это открытие заставляет его вспомнить всю свою жизнь.

  • Мировая премьера: 13 октября 2011
  • Российская премьера: 5 апреля 2012, Cinema Prestige

|
Качество видео: DVDRip

Продолжительность: 01:33:06

Формат: avi
Видео: XviD, 704x400, 1846 kbps
Аудио: русский, многоголосый закадровый [профессиональный], AC3 5.1, 384 kbps

Код:

General
Complete name                    : D:\Video\Sources\Vspominaja.moih.pechalnyh.shljuh.2011.P.DVDRip.avi
Format                           : AVI
Format/Info                      : Audio Video Interleave
File size                        : 1.46 GiB
Duration                         : 1h 33mn
Overall bit rate                 : 2 240 Kbps
Movie name                       : Vspominaja.moih.pechalnyh.shljuh.2011.P.DVDRip.IRONCLUB
Director                         : IRONCLUB
Genre                            : Romance
Writing application              : VirtualDubMod 1.5.10.2 (build 2540/release)
Original source form/Name        : Movie
Copyright                        : http://ironclub.tv/

Video
ID                               : 0
Format                           : MPEG-4 Visual
Format profile                   : Streaming Video@L1
Format settings, BVOP            : Yes
Format settings, QPel            : No
Format settings, GMC             : No warppoints
Format settings, Matrix          : Custom
Codec ID                         : XVID
Codec ID/Hint                    : XviD
Duration                         : 1h 33mn
Bit rate                         : 1 847 Kbps
Width                            : 704 pixels
Height                           : 400 pixels
Display aspect ratio             : 16/9
Frame rate                       : 25.000 fps
Resolution                       : 24 bits
Colorimetry                      : 4:2:0
Scan type                        : Progressive
Bits/(Pixel*Frame)               : 0.262
Stream size                      : 1.20 GiB (82%)
Writing library                  : XviD 1.2.1 (UTC 2008-12-04)

Audio
ID                               : 1
Format                           : AC-3
Format/Info                      : Audio Coding 3
Codec ID                         : 2000
Duration                         : 1h 33mn
Bit rate mode                    : Constant
Bit rate                         : 384 Kbps
Channel(s)                       : 6 channels
Channel positions                : Front: L C R, Surround: L R, LFE
Sampling rate                    : 48.0 KHz
Stream size                      : 256 MiB (17%)
Alignment                        : Split accross interleaves
Interleave, duration             : 40 ms (1.00 video frame)
Interleave, preload duration     : 500 ms

Семпл: http://multi-up.com/721962
picpicpic
Для увеличения картинки щелкните мышкой по превью

Этот торрент недоступен для скачивания без регистрации, однако доступен по публичной magnet-ссылке (источники с публичных трекеров). Перед использованием ссылки прочтите, пожалуйста Пользовательское соглашение, а также как можно дольше оставайтесь на раздаче! Для того, чтобы скачать сам торрент-файл (который видит больше источников), а также для того, чтобы поблагодарить релизера, вам необходимо зарегистрироваться. Если регистрироваться лень - вы можете также попробовать скачать релиз по нашим партнерским ссылкам ниже.

[underverse.su].t18424.torrent
Трекер: Зарегистрирован   [ 21.06.2012 18:39 ]  

Статус: проверено (by garry at 21.06.2012 18:40)
Поблагодарили: пока никто не поблагодарил...
Тип торрента: публичный - доступные источники с открытых трекеров: 
Размер: 1,46 GB (занимает 1/3 DVDR, для записи нужно 1 болванка DVDR/RW)
 
 
Похожие темы
Форум Тема Автор Торрент Отв. Посл. сооб.
Зарубежное кино [DVDRip, Low-Res HDRip, и т.д.] Вспоминая Титанов / Remember the Titans (Боаз Якин) [2000 г., драма, спорт, BDRip] H. Ledger
0 | 1

1 | 633

3

02.05.2012 11:13

Зарубежное кино [DVDRip, Low-Res HDRip, и т.д.] Вспоминая 1942 / Back To 1942 (Фэн Сяоган) [2012 г., драма, HDRip] Dub (НТВ+) 90ytr90
5 | 0

0 | 1053

11

09.09.2013 05:20

Зарубежное кино [DVD / HDDVD / BD / Remux] Вспоминая моих печальных шлюх / Memoria de mis putas tristes (Хеннинг Карлсен / Henning Carlsen) [2011, мелодрама, BDRemux 1080p] Greshnik
1 | 1

2 | 1211

14

09.10.2012 11:35


Яндекс.Метрика powered by Sphinx


В Н И М А Н И Е
Сайт не распространяет и не хранит электронные версии произведений, а лишь бесплатно и без коммерческой выгоды (не требуя взамен платы,
SMS и т.д.) предоставляет доступ к создаваемому пользователями каталогу ссылок на торрент-файлы, которые содержат только списки хеш-сумм.
Убедительная просьба с жалобами обращаться напрямую к пользователю, разместившему торрент файл.

Вверх