Loading...
Error

Отель «Мэриголд»: Лучший из экзотических / The Best Exotic Marigold Hotel (Джон Мэдден) [2011 г., драма, комедия, HDRip]

Статистика раздачи
Размер:  2,05 GB   |    Зарегистрирован:  4 года 5 месяцев   |    Скачан:  19 раз

Полного источника не было: 11 месяцев

Сидов:  0  |  0 KB/s  ]   Личеров:  0  |  0 KB/s  ]

* - сиды/пиры с внешних источников

   
 
Автор Сообщение

RG NewCinema 

21-Июн-2012 00:32

Отель «Мэриголд»: Лучший из экзотических / The Best Exotic Marigold Hotel


Год выпуска: 2011
Жанр: драма, комедия
Страна: Великобритания
Режиссер: Джон Мэдден
В ролях: Джуди Денч, Билл Найи, Том Уилкинсон, Мэгги Смит, Патрик Пирсон, Хью Диксон, Джеймс Роулингс, Пол Бхаттачарджи, Пенелопа Уилтон, Лиза Тарбак
Сюжет фильма:
Фильм повествует о группе британских пенсионеров, которые решили «удалиться на покой» в менее затратную по расходам и гораздо более экзотическую Индию. Соблазнившись рекламой о заново восстановленном отеле «Мериголд» и в предвкушении жизни полной удовольствий и безделья, они прибывают на место, только чтобы обнаружить, что отель, на самом деле, представляет собой лишь бледную тень своего былого величия. Но, несмотря на то, что окружающая обстановка далека от той роскоши, которую они себе представляли, совместные приключения бесповоротно меняют каждого из них, и они осознают, что можно начать жить заново и найти любовь, если отпустить прошлое…

  • Мировая премьера: 30 ноября 2011
  • Российская премьера: 22 марта 2012, Двадцатый Век Фокс СНГ

/
Качество видео: HDRip

Продолжительность: 02:03:45

Формат: avi
Видео: XviD, 720x304, 1910 kbps
Аудио: русский, дублированный [лицензия], AC3 5.1, 448 kbps

Код:

General
Complete name                    : D:\Video\Sources\Otel.Mjerigold.Luchshij.iz.jekzoticheskih.2011.D.HDRip.avi
Format                           : AVI
Format/Info                      : Audio Video Interleave
Format profile                   : OpenDML
File size                        : 2.05 GiB
Duration                         : 2h 3mn
Overall bit rate                 : 2 371 Kbps
Movie name                       : Otel.Mjerigold.Luchshij.iz.jekzoticheskih.2011.D.HDRip.IRONCLUB
Director                         : IRONCLUB
Genre                            : Comedy, Drama
Writing application              : VirtualDubMod 1.5.10.2 (build 2540/release)
Original source form/Name        : Movie
Copyright                        : http://ironclub.tv/

Video
ID                               : 0
Format                           : MPEG-4 Visual
Format profile                   : Streaming Video@L1
Format settings, BVOP            : Yes
Format settings, QPel            : No
Format settings, GMC             : No warppoints
Format settings, Matrix          : Custom
Codec ID                         : XVID
Codec ID/Hint                    : XviD
Duration                         : 2h 3mn
Bit rate                         : 1 911 Kbps
Width                            : 720 pixels
Height                           : 304 pixels
Display aspect ratio             : 2.35
Frame rate                       : 23.976 fps
Resolution                       : 24 bits
Colorimetry                      : 4:2:0
Scan type                        : Progressive
Bits/(Pixel*Frame)               : 0.364
Stream size                      : 1.65 GiB (81%)
Writing library                  : XviD 1.2.1 (UTC 2008-12-04)

Audio
ID                               : 1
Format                           : AC-3
Format/Info                      : Audio Coding 3
Codec ID                         : 2000
Duration                         : 2h 3mn
Bit rate mode                    : Constant
Bit rate                         : 448 Kbps
Channel(s)                       : 6 channels
Channel positions                : Front: L C R, Surround: L R, LFE
Sampling rate                    : 48.0 KHz
Stream size                      : 397 MiB (19%)
Alignment                        : Split accross interleaves
Interleave, duration             : 42 ms (1.00 video frame)
Interleave, preload duration     : 500 ms

Семпл: http://multi-up.com/721707
picpicpic
Для увеличения картинки щелкните мышкой по превью

Этот торрент недоступен для скачивания без регистрации, однако доступен по публичной magnet-ссылке (источники с публичных трекеров). Перед использованием ссылки прочтите, пожалуйста Пользовательское соглашение, а также как можно дольше оставайтесь на раздаче! Для того, чтобы скачать сам торрент-файл (который видит больше источников), а также для того, чтобы поблагодарить релизера, вам необходимо зарегистрироваться. Если регистрироваться лень - вы можете также попробовать скачать релиз по нашим партнерским ссылкам ниже.

[underverse.su].t18411.torrent
Трекер: Зарегистрирован   [ 21.06.2012 00:32 ]  

Статус: проверено (by Паукан at 21.06.2012 00:37)
Поблагодарили: 1 человек
Тип торрента: публичный - доступные источники с открытых трекеров: 
Размер: 2,05 GB (занимает 0,47 DVDR, для записи нужно 1 болванка DVDR/RW)
 
 
Похожие темы
Форум Тема Автор Торрент Отв. Посл. сооб.
Зарубежное кино [DVDRip, Low-Res HDRip, и т.д.] Отель «Мэриголд»: Лучший из экзотических / The Best Exotic Marigold Hotel (Джон Мэдден / John Madden) [2011 г., драма, комедия, HDRip] Dub 90ytr90
89 | 0

0 | 244

9

09.02.2015 10:12

T Зарубежное кино [DVDRip, Low-Res HDRip, и т.д.] Отель «Мэриголд». Заселение продолжается / The Second Best Exotic Marigold Hotel (Джон Мэдден) [2015 г., драма, комедия, HDRip] Dub (Звук с TS) makkol
30 | 0

0 | 544

16

23.06.2015 23:47

T Зарубежное кино [DVDRip, Low-Res HDRip, и т.д.] Отель «Мэриголд». Заселение продолжается / The Second Best Exotic Marigold Hotel (Джон Мэдден) [2015 г., драма, комедия, HDRip] Dub (Line) makkol
69 | 2

0 | 433

28

30.06.2015 14:16

Зарубежное кино [HDDVDRip / BDRip / WEB-DL / HDTV 1080/720р] Отель «Мэриголд»: Лучший из экзотических / The Best Exotic Marigold Hotel (Джон Мэдден / John Madden) [2011 г., драма, комедия, BDRip 1080p] Dub + Original (Eng) + Sub (Rus, Eng) 90ytr90
52 | 4

0 | 248

2

09.02.2015 09:59

Зарубежное кино [HDDVDRip / BDRip / WEB-DL / HDTV 1080/720р] Отель «Мэриголд»: Лучший из экзотических / The Best Exotic Marigold Hotel (Джон Мэдден / John Madden) [2011 г., драма, комедия, BDRip 720p] Dub + Original (Eng) + Subs 90ytr90
18 | 0

0 | 306

4

09.02.2015 10:30

T Зарубежное кино [HDDVDRip / BDRip / WEB-DL / HDTV 1080/720р] Отель «Мэриголд». Заселение продолжается / The Second Best Exotic Marigold Hotel (Джон Мэдден) [2015 г., драма, комедия, BDRip 1080p] Dub (Звук с TS) + Original makkol
10 | 1

0 | 487

6

23.06.2015 23:59

T Зарубежное кино [HDDVDRip / BDRip / WEB-DL / HDTV 1080/720р] Отель «Мэриголд». Заселение продолжается / The Second Best Exotic Marigold Hotel (Джон Мэдден) [2015 г., драма, комедия, BDRip 1080p] Dub (Line) + Original (Eng) + Subs (Eng) makkol
1 | 0

0 | 321

3

30.06.2015 14:35


Яндекс.Метрика powered by Sphinx


В Н И М А Н И Е
Сайт не распространяет и не хранит электронные версии произведений, а лишь бесплатно и без коммерческой выгоды (не требуя взамен платы,
SMS и т.д.) предоставляет доступ к создаваемому пользователями каталогу ссылок на торрент-файлы, которые содержат только списки хеш-сумм.
Убедительная просьба с жалобами обращаться напрямую к пользователю, разместившему торрент файл.

Вверх