Loading...
Error

Вавилон 5: Третье пространство (Хесус Сальвадор Тревино) [1998 г., фантастика, драма, DVDRip]

Статистика раздачи
Размер:  1,19 GB   |    Зарегистрирован:  4 года 5 месяцев   |    Скачан:  10 раз

Полного источника не было: 6 месяцев

Сидов:  0  |  0 KB/s  ]   Личеров:  0  |  0 KB/s  ]

* - сиды/пиры с внешних источников

   
 
Автор Сообщение

Бишеп Пол:Муж

20-Июн-2012 20:14

Вавилон 5: Третье пространство


Год выпуска: 1998
Жанр: фантастика, драма
Страна: США
Режиссер: Хесус Сальвадор Тревино
В ролях: Брюс Бокслайтнер, Клаудия Кристиан, Мира Фурлан, Джефф Конэвей, Стефен Ферст, Патриция Таллман, Клайд Кусацу, Шари Белафонте, Уильям Сэндерсон, Кип Кинг
Сюжет фильма:
Испытывая сложности со снабжением, экипаж Вавилона 5 старается максимально парализовать деятельность космических пиратов. Во время одного из таких рейдов командор Сьюзен Иванова находит в гиперпространстве артефакт колоссальных размеров, который буксируется к станции.

Практически сразу на Вавилон 5 прибывает экспедиция ксеноархеологов во главе с доктором Трент. У них получается активировать артефакт, и тут начинаются проблемы.

  • Мировая премьера: 19 июля 1998


Качество видео: DVDRip

Продолжительность: 01:34:12

Формат: mkv
Видео: MPEG-4 AVC (H.264), 768x432, 881 kbps
Аудио #1: английский, оригинал, AC3 5.1, 448 kbps
Аудио #2: русский, многоголосый закадровый (профессиональный), AC3 5.1, 448 kbps
Субтитры: вшитые отключаемые, S_TEXT/UTF8, английский

Код:

General
Complete name                    : F:\Фильмы\Babylon 5 - Thirdspace.mkv
Format                           : Matroska
File size                        : 1.19 GiB
Duration                         : 1h 34mn
Overall bit rate                 : 1 814 Kbps
Movie name                       : Babylon 5 - Thirdspace
Encoded date                     : UTC 2008-03-12 20:53:30
Writing application              : mkvmerge v2.1.0 ('Another Place To Fall') built on Jan 15 2008 23:46:37
Writing library                  : libebml v0.7.7 + libmatroska v0.8.1

Video
ID                               : 1
Format                           : AVC
Format/Info                      : Advanced Video Codec
Format profile                   : High@L5.1
Format settings, CABAC           : Yes
Format settings, ReFrames        : 8 frames
Muxing mode                      : Container profile=Unknown@5.1
Codec ID                         : V_MPEG4/ISO/AVC
Duration                         : 1h 34mn
Bit rate                         : 882 Kbps
Width                            : 768 pixels
Height                           : 432 pixels
Display aspect ratio             : 16/9
Frame rate                       : 29.970 fps
Resolution                       : 24 bits
Colorimetry                      : 4:2:0
Scan type                        : Progressive
Bits/(Pixel*Frame)               : 0.089
Stream size                      : 593 MiB (49%)

Audio #1
ID                               : 2
Format                           : AC-3
Format/Info                      : Audio Coding 3
Codec ID                         : A_AC3
Duration                         : 1h 34mn
Bit rate mode                    : Constant
Bit rate                         : 448 Kbps
Channel(s)                       : 6 channels
Channel positions                : Front: L C R, Surround: L R, LFE
Sampling rate                    : 48.0 KHz
Stream size                      : 302 MiB (25%)
Language                         : English

Audio #2
ID                               : 3
Format                           : AC-3
Format/Info                      : Audio Coding 3
Codec ID                         : A_AC3
Duration                         : 1h 34mn
Bit rate mode                    : Constant
Bit rate                         : 448 Kbps
Channel(s)                       : 6 channels
Channel positions                : Front: L C R, Surround: L R, LFE
Sampling rate                    : 48.0 KHz
Stream size                      : 302 MiB (25%)
Language                         : Russian

Text
ID                               : 4
Format                           : UTF-8
Codec ID                         : S_TEXT/UTF8
Codec ID/Info                    : UTF-8 Plain Text
Language                         : English

Menu
00:00:00.000                     : en:Life's Eternal Relic
00:04:17.800                     : en:Without Sheridan
00:08:17.267                     : en:Virtual Excitement
00:11:38.634                     : en:Meeting Garibaldi
00:17:16.934                     : en:Business of Science
00:20:43.000                     : en:Embarrassing Confession
00:21:42.166                     : en:Bryson Makes Contact
00:25:20.499                     : en:Sensual Telemetry
00:27:13.166                     : en:Soul Asylum
00:32:31.299                     : en:Breakfast Is Served
00:34:14.799                     : en:Research Findings
00:40:36.232                     : en:Powerful Holograms
00:43:36.265                     : en:Drawn to Death
00:45:24.598                     : en:No Time for Lawyers
00:48:45.965                     : en:Unwanted Threesome
00:52:27.965                     : en:The Reaper
00:54:19.198                     : en:Preserved in Hell
00:59:15.865                     : en:Near-Death Experience
01:00:28.665                     : en:Transcendent Mistake
01:05:25.298                     : en:Scared Stiff
01:14:10.464                     : en:Independent Circuit
01:16:38.831                     : en:True Believer
01:21:29.431                     : en:Hostage Negotiations
01:28:13.998                     : en:Back to Life
01:32:41.832                     : en:End Credits

Семпл: http://multi-up.com/721698
picpicpic
Для увеличения картинки щелкните мышкой по превью

Этот торрент недоступен для скачивания без регистрации, однако доступен по публичной magnet-ссылке (источники с публичных трекеров). Перед использованием ссылки прочтите, пожалуйста Пользовательское соглашение, а также как можно дольше оставайтесь на раздаче! Для того, чтобы скачать сам торрент-файл (который видит больше источников), а также для того, чтобы поблагодарить релизера, вам необходимо зарегистрироваться. Если регистрироваться лень - вы можете также попробовать скачать релиз по нашим партнерским ссылкам ниже.

[underverse.su].t18408.torrent
Трекер: Зарегистрирован   [ 20.06.2012 20:14 ]  

Статус: проверено (by Паукан at 20.06.2012 23:15)
Поблагодарили: пока никто не поблагодарил...
Тип торрента: публичный - доступные источники с открытых трекеров: 
Размер: 1,19 GB (занимает 0,27 DVDR, для записи нужно 1 болванка DVDR/RW)
 
 
Похожие темы
Форум Тема Автор Торрент Отв. Посл. сооб.
Зарубежное кино [DVDRip, Low-Res HDRip, и т.д.] Вавилон 5: Река душ / Babylon 5: The River of Souls (Джанет Грик) [1998 г., фантастика, драма, DVDRip] Бишеп
0 | 0

0 | 657

7

26.06.2012 14:19

Зарубежное кино [DVDRip, Low-Res HDRip, и т.д.] Вавилон 5: Призыв к оружию (ТВ) / Babylon 5: A Call to Arms (Майкл Виджер) [1999 г., фантастика, драма, DVDRip] Бишеп
0 | 0

0 | 783

13

26.06.2012 15:15



Последний раз редактировалось: Бишеп (20.06.2012 20:50), всего редактировалось 1 раз

20-Июн-2012 20:26

Топик был перенесен из форума Зарубежное кино AVC в форум Зарубежное кино [DVDRip, Low-Res HDRip, и т.д.]


dj_maxx
 

Паукан Пол:Муж

20-Июн-2012 20:26

Бишеп писал(а):

Аудио #2: русский, ,
необходимо указать тип перевода... 8)

Яндекс.Метрика powered by Sphinx


В Н И М А Н И Е
Сайт не распространяет и не хранит электронные версии произведений, а лишь бесплатно и без коммерческой выгоды (не требуя взамен платы,
SMS и т.д.) предоставляет доступ к создаваемому пользователями каталогу ссылок на торрент-файлы, которые содержат только списки хеш-сумм.
Убедительная просьба с жалобами обращаться напрямую к пользователю, разместившему торрент файл.

Вверх