Loading...
Error

Суперкласико / SuperClasico (Оле Кристиан Мадсен) [2011 г., комедия, DVDRip]

Статистика раздачи
Размер:  693 MB   |    Зарегистрирован:  4 года 5 месяцев   |    Скачан:  5 раз

Полного источника не было: 3 года 10 месяцев

Сидов:  0  |  0 KB/s  ]   Личеров:  0  |  0 KB/s  ]

* - сиды/пиры с внешних источников

   
 
Автор Сообщение

RG NewCinema 

20-Июн-2012 15:23

Суперкласико / SuperClasico


Год выпуска: 2011
Жанр: комедия
Страна: Дания
Режиссер: Оле Кристиан Мадсен
В ролях: Паприка Стеэн, Андерс В. Бертельсен, Себастьян Эстебанес, Адриана Машалино, Джэми Мортон, Мигель Дедович
Сюжет фильма:
Кристиану следует признать: налаженная жизнь катится к черту, сын-подросток, как многие в его возрасте, не желает общаться с отцом, а торговля элитными винами летит в пропасть из-за того, что чаще всего он сам потребляет свой товар. Но самое главное - от Кристиана ушла жена. И не просто ушла, а собирается замуж за звезду мирового футбола, супермена, машину для секса! Какой мужчина в состоянии пережить это и не сойти с ума? В отчаянной попытке вернуть жену герой отправляется в Буэнос-Айрес.

  • Мировая премьера: 17 марта 2011
  • Российская премьера: 17 мая 2012, Русский репортаж

|
Качество видео: DVDRip

Продолжительность: 01:33:49

Формат: avi
Видео: XviD, 720x306, 894 kbps
Аудио: русский, многоголосый закадровый [любительский], AC3 2.0, 128 kbps

Код:

General
Complete name                    : D:\Video\Sources\Superklasiko.2011.L3.DVDRip.700MB.avi
Format                           : AVI
Format/Info                      : Audio Video Interleave
File size                        : 693 MiB
Duration                         : 1h 33mn
Overall bit rate                 : 1 033 Kbps
Writing application              : VirtualDubMod 1.5.10.2 (build 2540/release)

Video
ID                               : 0
Format                           : MPEG-4 Visual
Format profile                   : Simple@L3
Format settings, BVOP            : No
Format settings, QPel            : No
Format settings, GMC             : No warppoints
Format settings, Matrix          : Default (H.263)
Codec ID                         : XVID
Codec ID/Hint                    : XviD
Duration                         : 1h 33mn
Bit rate                         : 895 Kbps
Width                            : 720 pixels
Height                           : 306 pixels
Display aspect ratio             : 2.35
Frame rate                       : 25.000 fps
Resolution                       : 24 bits
Colorimetry                      : 4:2:0
Scan type                        : Progressive
Bits/(Pixel*Frame)               : 0.162
Stream size                      : 601 MiB (87%)
Writing library                  : XviD 1.2.1 (UTC 2008-12-04)

Audio
ID                               : 1
Format                           : AC-3
Format/Info                      : Audio Coding 3
Codec ID                         : 2000
Duration                         : 1h 33mn
Bit rate mode                    : Constant
Bit rate                         : 128 Kbps
Channel(s)                       : 2 channels
Channel positions                : L R
Sampling rate                    : 48.0 KHz
Stream size                      : 85.9 MiB (12%)
Alignment                        : Split accross interleaves
Interleave, duration             : 40 ms (1.00 video frame)
Interleave, preload duration     : 500 ms

Семпл: http://multi-up.com/721539
picpicpic
Для увеличения картинки щелкните мышкой по превью

Этот торрент недоступен для скачивания без регистрации, однако доступен по публичной magnet-ссылке (источники с публичных трекеров). Перед использованием ссылки прочтите, пожалуйста Пользовательское соглашение, а также как можно дольше оставайтесь на раздаче! Для того, чтобы скачать сам торрент-файл (который видит больше источников), а также для того, чтобы поблагодарить релизера, вам необходимо зарегистрироваться. Если регистрироваться лень - вы можете также попробовать скачать релиз по нашим партнерским ссылкам ниже.

[underverse.su].t18400.torrent
Трекер: Зарегистрирован   [ 20.06.2012 15:23 ]  

Статус: проверено (by Паукан at 20.06.2012 15:55)
Поблагодарили: пока никто не поблагодарил...
Тип торрента: публичный - доступные источники с открытых трекеров: 
Размер: 693 MB (занимает 0,15 DVDR, для записи нужно 1 болванка DVDR/RW)
 
 

Яндекс.Метрика powered by Sphinx


В Н И М А Н И Е
Сайт не распространяет и не хранит электронные версии произведений, а лишь бесплатно и без коммерческой выгоды (не требуя взамен платы,
SMS и т.д.) предоставляет доступ к создаваемому пользователями каталогу ссылок на торрент-файлы, которые содержат только списки хеш-сумм.
Убедительная просьба с жалобами обращаться напрямую к пользователю, разместившему торрент файл.

Вверх