Loading...
Error

Девушка входит в бар / Girl Walks Into a Bar (Себастьян Гутьеррес) [2011 г., драма, комедия, криминал, DVDRip]

Статистика раздачи
Размер:  1,37 GB   |    Зарегистрирован:  4 года 5 месяцев   |    Скачан:  3 раза

Полного источника не было: 4 года 2 месяца

Сидов:  0  |  0 KB/s  ]   Личеров:  0  |  0 KB/s  ]

* - сиды/пиры с внешних источников

   
 
Автор Сообщение

RG NewCinema 

20-Июн-2012 15:16

Девушка входит в бар / Girl Walks Into a Bar


Год выпуска: 2011
Жанр: драма, комедия, криминал
Страна: США
Режиссер: Себастьян Гутьеррес
В ролях: Джил Беллоуз, Ксандер Беркли, Алексис Бледел, Эммануэль Шрики, Розарио Доусон, Дэнни ДеВито, Роберт Форстер, Карла Гуджино, Джош Хартнетт, Закари Куинто
Сюжет фильма:
Незадачливый стоматолог Николас назначает встречу с потенциальным убийцей, чтобы внести последние штрихи в план по убийству своей жены. Цена назначена, но сам того не зная, Ник приводит в действие цепь событий, которые обернутся путешествием сквозь бары, стриптиз-клубы и совсем уж нестандартные заведения ночного Лос-Анджелеса. Гангстеры, бармены, экзотические танцовщицы, девушка-гардеробщица и нудисты, мошенники и копы кого только не встретишь за одну короткую ночь...

  • Мировая премьера: 7 марта 2011

/
Качество видео: DVDRip

Продолжительность: 01:15:35

Формат: avi
Видео: XviD, 720x304, 1806 kbps
Аудио #1: русский, многоголосый закадровый [профессиональный], AC3 5.1, 384 kbps
Аудио #2: английский, оригинал, AC3 5.1, 384 kbps

Код:

General
Complete name                    : D:\Video\Sources\Devushka.Vxodit.v.Bar.2011.P.DVDRip.avi
Format                           : AVI
Format/Info                      : Audio Video Interleave
File size                        : 1.37 GiB
Duration                         : 1h 15mn
Overall bit rate                 : 2 589 Kbps
Movie name                       : Devushka.Vxodit.v.Bar.2011.P.DVDRip.IRONCLUB
Director                         : IRONCLUB
Genre                            : Comedy | Drama | Fantasy
Writing application              : VirtualDubMod 1.5.10.2 (build 2540/release)
Original source form/Name        : Movie
Copyright                        : http://ironclub.tv/

Video
ID                               : 0
Format                           : MPEG-4 Visual
Format profile                   : Streaming Video@L1
Format settings, BVOP            : Yes
Format settings, QPel            : No
Format settings, GMC             : No warppoints
Format settings, Matrix          : Custom
Codec ID                         : XVID
Codec ID/Hint                    : XviD
Duration                         : 1h 15mn
Bit rate                         : 1 807 Kbps
Width                            : 720 pixels
Height                           : 304 pixels
Display aspect ratio             : 2.35
Frame rate                       : 25.000 fps
Resolution                       : 24 bits
Colorimetry                      : 4:2:0
Scan type                        : Progressive
Bits/(Pixel*Frame)               : 0.330
Stream size                      : 977 MiB (70%)
Writing library                  : XviD 1.2.1 (UTC 2008-12-04)

Audio #1
ID                               : 1
Format                           : AC-3
Format/Info                      : Audio Coding 3
Codec ID                         : 2000
Duration                         : 1h 15mn
Bit rate mode                    : Constant
Bit rate                         : 384 Kbps
Channel(s)                       : 6 channels
Channel positions                : Front: L C R, Surround: L R, LFE
Sampling rate                    : 48.0 KHz
Video delay                      : 1s 800ms
Stream size                      : 208 MiB (15%)
Alignment                        : Split accross interleaves
Interleave, duration             : 40 ms (1.00 video frame)
Interleave, preload duration     : 500 ms

Audio #2
ID                               : 2
Format                           : AC-3
Format/Info                      : Audio Coding 3
Codec ID                         : 2000
Duration                         : 1h 15mn
Bit rate mode                    : Constant
Bit rate                         : 384 Kbps
Channel(s)                       : 6 channels
Channel positions                : Front: L C R, Surround: L R, LFE
Sampling rate                    : 48.0 KHz
Video delay                      : 1s 800ms
Stream size                      : 208 MiB (15%)
Alignment                        : Split accross interleaves
Interleave, duration             : 40 ms (1.00 video frame)
Interleave, preload duration     : 500 ms

Семпл: http://multi-up.com/721469
picpicpic
Для увеличения картинки щелкните мышкой по превью

Этот торрент недоступен для скачивания без регистрации, однако доступен по публичной magnet-ссылке (источники с публичных трекеров). Перед использованием ссылки прочтите, пожалуйста Пользовательское соглашение, а также как можно дольше оставайтесь на раздаче! Для того, чтобы скачать сам торрент-файл (который видит больше источников), а также для того, чтобы поблагодарить релизера, вам необходимо зарегистрироваться. Если регистрироваться лень - вы можете также попробовать скачать релиз по нашим партнерским ссылкам ниже.

[underverse.su].t18399.torrent
Трекер: Зарегистрирован   [ 20.06.2012 15:16 ]  

Статус: проверено (by Паукан at 20.06.2012 15:55)
Поблагодарили: пока никто не поблагодарил...
Тип торрента: публичный - доступные источники с открытых трекеров: 
Размер: 1,37 GB (занимает 0,31 DVDR, для записи нужно 1 болванка DVDR/RW)
 
 

Яндекс.Метрика powered by Sphinx


В Н И М А Н И Е
Сайт не распространяет и не хранит электронные версии произведений, а лишь бесплатно и без коммерческой выгоды (не требуя взамен платы,
SMS и т.д.) предоставляет доступ к создаваемому пользователями каталогу ссылок на торрент-файлы, которые содержат только списки хеш-сумм.
Убедительная просьба с жалобами обращаться напрямую к пользователю, разместившему торрент файл.

Вверх