Loading...
Error

Хищник / Predator (Джон МакТирнан) [1987 г., фантастика, боевик, триллер, приключения, HDRip] (Rus, Ukr, Eng) HQ Underverse

Статистика раздачи
Размер:  2,17 GB   |    Зарегистрирован:  4 года 5 месяцев   |    Скачан:  2 раза

Полного источника не было: 2 года 3 месяца

Сидов:  0  |  0 KB/s  ]   Личеров:  0  |  0 KB/s  ]

* - сиды/пиры с внешних источников

   
 
Автор Сообщение

HQ Underverse 

19-Июн-2012 22:01

Хищник / Predator


Год выпуска: 1987
Жанр: фантастика, боевик, триллер, приключения
Страна: США
Режиссер: Джон МакТирнан
В ролях: Арнольд Шварценеггер, Карл Уэзерс, Элпидия Каррильо, Билл Дьюк, Джесси Вентура, Сонни Лэндэм, Ричард Чавес, Р.Г. Армстронг, Шейн Блэк, Кевин Питер Холл
Сюжет фильма:
Американский вертолет был сбит партизанами в Южной Америке. Оставшийся в живых экипаж находится в плену. Центральное разведывательное управление США бросает свои лучшие силы для освобождения американских граждан.
Элитная группа спецназа во главе с Датчем была заброшена в южноамериканские джунгли. Операция шла по плану до тех пор, пока они не наткнулись на поляну с растерзанными телами, опознать которые не представлялось возможным. Только по обрывкам униформы стало понятно, что это и есть экипаж сбитого вертолета.
Понимая, что операция провалена, Датч отдает приказ двигаться к точке эвакуации. По дороге становится ясно, что что-то невидимое, сливающееся с лесом, охотится на них. Охотится, методично убивая одного за другим, забирая себе страшный трофей — череп с позвоночником. В живых остается один Датч, готовый сразиться с инопланетным охотником.

  • Мировая премьера: 12 июня 1987

|
Качество видео: HDRip

Продолжительность: 01:46:35

Формат: avi
Видео: XviD, 704x384, 2131 kbps
Аудио #1: русский, дублированный [лицензия], AC3 5.1, 384 kbps
Аудио #2: английский, оригинал, AC3 5.1, 384 kbps
Аудио #3: русский, многоголосый закадровый [профессиональный, Киномания], AC3 5.1, 384 kbps (отдельным файлом: здесь)
Аудио #4: русский, многоголосый закадровый [профессиональный, R5], AC3 5.1, 384 kbps (отдельным файлом: здесь)
Аудио #5: русский, одноголосый закадровый [профессиональный, Гоблин], AC3 5.1, 384 kbps (отдельным файлом: здесь)
Аудио #6: украинский, многоголосый закадровый [профессиональный, 1+1], AC3 5.1, 384 kbps (отдельным файлом: здесь)
Аудио #7: украинский, многоголосый закадровый [профессиональный, ICTV], AC3 5.1, 384 kbps (отдельным файлом: здесь)
Субтитры #1: внешние, SRT, английский (на narod.ru)
Субтитры #2: внешние, SRT, русский (на narod.ru)
Субтитры #3: внешние, SRT, русский (Гоблин) (на narod.ru)

Код:

General
Complete name                    : D:\Video\HQ-Rips\Хищник\Predator.1987.HDRip.XviD.AC3.Rus.D.HQ.Underverse.avi
Format                           : AVI
Format/Info                      : Audio Video Interleave
Format profile                   : OpenDML
File size                        : 2.17 GiB
Duration                         : 1h 46mn
Overall bit rate                 : 2 917 Kbps
Writing application              : VirtualDubMod 1.5.10.2 (build 2542/release)
Writing library                  : VirtualDubMod build 2542/release

Video
ID                               : 0
Format                           : MPEG-4 Visual
Format profile                   : Streaming Video@L1
Format settings, BVOP            : Yes
Format settings, QPel            : No
Format settings, GMC             : No warppoints
Format settings, Matrix          : Custom
Muxing mode                      : Packed bitstream
Codec ID                         : XVID
Codec ID/Hint                    : XviD
Duration                         : 1h 46mn
Bit rate                         : 2 132 Kbps
Width                            : 704 pixels
Height                           : 384 pixels
Display aspect ratio             : 16/9
Frame rate                       : 23.976 fps
Resolution                       : 24 bits
Colorimetry                      : 4:2:0
Scan type                        : Progressive
Bits/(Pixel*Frame)               : 0.329
Stream size                      : 1.59 GiB (73%)
Writing library                  : XviD 64

Audio #1
ID                               : 1
Format                           : AC-3
Format/Info                      : Audio Coding 3
Codec ID                         : 2000
Duration                         : 1h 46mn
Bit rate mode                    : Constant
Bit rate                         : 384 Kbps
Channel(s)                       : 6 channels
Channel positions                : Front: L C R, Surround: L R, LFE
Sampling rate                    : 48.0 KHz
Stream size                      : 293 MiB (13%)
Alignment                        : Split accross interleaves
Interleave, duration             : 42 ms (1.00 video frame)
Interleave, preload duration     : 500 ms

Audio #2
ID                               : 2
Format                           : AC-3
Format/Info                      : Audio Coding 3
Codec ID                         : 2000
Duration                         : 1h 46mn
Bit rate mode                    : Constant
Bit rate                         : 384 Kbps
Channel(s)                       : 6 channels
Channel positions                : Front: L C R, Surround: L R, LFE
Sampling rate                    : 48.0 KHz
Stream size                      : 293 MiB (13%)
Alignment                        : Split accross interleaves
Interleave, duration             : 42 ms (1.00 video frame)
Interleave, preload duration     : 500 ms

General
Complete name                    : D:\Video\HQ-Rips\Хищник\Predator.1987.HDRip.XviD.AC3.Rus.D.HQ.Underverse.RUS.GOBLIN.ac3
Format                           : AC-3
Format/Info                      : Audio Coding 3
File size                        : 293 MiB
Duration                         : 1h 46mn
Overall bit rate                 : 384 Kbps

Audio
Format                           : AC-3
Format/Info                      : Audio Coding 3
Duration                         : 1h 46mn
Bit rate mode                    : Constant
Bit rate                         : 384 Kbps
Channel(s)                       : 6 channels
Channel positions                : Front: L C R, Surround: L R, LFE
Sampling rate                    : 48.0 KHz
Stream size                      : 293 MiB (100%)

General
Complete name                    : D:\Video\HQ-Rips\Хищник\Predator.1987.HDRip.XviD.AC3.Rus.D.HQ.Underverse.RUS.MVO.KINOMANIA.ac3
Format                           : AC-3
Format/Info                      : Audio Coding 3
File size                        : 293 MiB
Duration                         : 1h 46mn
Overall bit rate                 : 384 Kbps

Audio
Format                           : AC-3
Format/Info                      : Audio Coding 3
Duration                         : 1h 46mn
Bit rate mode                    : Constant
Bit rate                         : 384 Kbps
Channel(s)                       : 6 channels
Channel positions                : Front: L C R, Surround: L R, LFE
Sampling rate                    : 48.0 KHz
Stream size                      : 293 MiB (100%)

General
Complete name                    : D:\Video\HQ-Rips\Хищник\Predator.1987.HDRip.XviD.AC3.Rus.D.HQ.Underverse.RUS.MVO.R5.ac3
Format                           : AC-3
Format/Info                      : Audio Coding 3
File size                        : 293 MiB
Duration                         : 1h 46mn
Overall bit rate                 : 384 Kbps

Audio
Format                           : AC-3
Format/Info                      : Audio Coding 3
Duration                         : 1h 46mn
Bit rate mode                    : Constant
Bit rate                         : 384 Kbps
Channel(s)                       : 6 channels
Channel positions                : Front: L C R, Surround: L R, LFE
Sampling rate                    : 48.0 KHz
Stream size                      : 293 MiB (100%)

General
Complete name                    : D:\Video\HQ-Rips\Хищник\Predator.1987.HDRip.XviD.AC3.Rus.D.HQ.Underverse.UKR.ICTV.ac3
Format                           : AC-3
Format/Info                      : Audio Coding 3
File size                        : 293 MiB
Duration                         : 1h 46mn
Overall bit rate                 : 384 Kbps

Audio
Format                           : AC-3
Format/Info                      : Audio Coding 3
Duration                         : 1h 46mn
Bit rate mode                    : Constant
Bit rate                         : 384 Kbps
Channel(s)                       : 6 channels
Channel positions                : Front: L C R, Surround: L R, LFE
Sampling rate                    : 48.0 KHz
Stream size                      : 293 MiB (100%)

General
Complete name                    : D:\Video\HQ-Rips\Хищник\Predator.1987.HDRip.XviD.AC3.Rus.D.HQ.UnderverseUKR.1PLUS1.ac3
Format                           : AC-3
Format/Info                      : Audio Coding 3
File size                        : 293 MiB
Duration                         : 1h 46mn
Overall bit rate                 : 384 Kbps

Audio
Format                           : AC-3
Format/Info                      : Audio Coding 3
Duration                         : 1h 46mn
Bit rate mode                    : Constant
Bit rate                         : 384 Kbps
Channel(s)                       : 6 channels
Channel positions                : Front: L C R, Surround: L R, LFE
Sampling rate                    : 48.0 KHz
Stream size                      : 293 MiB (100%)

Релиз группы:
picpicpic
Для увеличения картинки щелкните мышкой по превью

Этот торрент недоступен для скачивания без регистрации, однако доступен по публичной magnet-ссылке (источники с публичных трекеров). Перед использованием ссылки прочтите, пожалуйста Пользовательское соглашение, а также как можно дольше оставайтесь на раздаче! Для того, чтобы скачать сам торрент-файл (который видит больше источников), а также для того, чтобы поблагодарить релизера, вам необходимо зарегистрироваться. Если регистрироваться лень - вы можете также попробовать скачать релиз по нашим партнерским ссылкам ниже.

[underverse.su].t18380.torrent
Трекер: Зарегистрирован   [ 19.06.2012 22:01 ]  

Статус: проверено (by HQ Underverse at 19.06.2012 22:01)
Поблагодарили: 2 человека
Тип торрента: публичный - доступные источники с открытых трекеров: 
Размер: 2,17 GB (занимает 1/2 DVDR, для записи нужно 1 болванка DVDR/RW)
 
 

SergBond Пол:Муж

30-Сен-2013 10:03

не качается!!!
дайте разадчу!..

Яндекс.Метрика powered by Sphinx


В Н И М А Н И Е
Сайт не распространяет и не хранит электронные версии произведений, а лишь бесплатно и без коммерческой выгоды (не требуя взамен платы,
SMS и т.д.) предоставляет доступ к создаваемому пользователями каталогу ссылок на торрент-файлы, которые содержат только списки хеш-сумм.
Убедительная просьба с жалобами обращаться напрямую к пользователю, разместившему торрент файл.

Вверх