Loading...
Error

В доме отца / Casa de mi Padre (Мэтт Пидмонт) [2012 г., комедия, DVDRip]

Статистика раздачи
Размер:  1,46 GB   |    Зарегистрирован:  4 года 5 месяцев   |    Скачан:  12 раз

Полного источника не было: 4 года

Сидов:  0  |  0 KB/s  ]   Личеров:  0  |  0 KB/s  ]

* - сиды/пиры с внешних источников

   
 
Автор Сообщение

RG NewCinema 

18-Июн-2012 19:07

В доме отца / Casa de mi Padre


Год выпуска: 2012
Жанр: комедия
Страна: США
Режиссер: Мэтт Пидмонт
В ролях: Уилл Феррелл, Гаэль Гарсия Берналь, Диего Луна, Педро Армендарис мл., Генезис Родригез, Эфрен Рамирез, Адриан Мартинез, Мэнюель Уррего, Ник Офферман, Джерри Коллинз
Сюжет фильма:
Армандо Альварес обычный парень, не особо видавший жизнь. Да и как насладиться ею, когда он вынужден проводить все своё время на ранчо своего отца. Да все осложняется еще и тем, что он английского не знает. И это просто катастрофа для человека, который не может покинуть родную Мексику, чтоб на некоторое время вдохнуть свежий воздух свободы. А тут еще их семейный бизнес не заладился на ранчо, возникли финансовые трудности, отцу срочно требуется немалая сумма денег. И в этот момент, словно спаситель, приезжает его брат Армандо Рауль со своей новой невестой. А у него все хорошо, он очень успешный, умеет вести свой бизнес, да и долг отца обещает погасить. Но...

  • Мировая премьера: 13 марта 2012
  • Российская премьера: 17 мая 2012, Парадиз

/
Качество видео: DVDRip

Продолжительность: 01:20:51

Формат: avi
Видео: XviD, 720x400, 1796 kbps
Аудио #1: русский, дублированный [лицензия], AC3 5.1, 384 kbps
Аудио #2: испанский, оригинал, AC3 5.1, 384 kbps

Код:

General
Complete name                    : D:\Video\Sources\V.dome.otca.2012.D.DVDRip.avi
Format                           : AVI
Format/Info                      : Audio Video Interleave
File size                        : 1.46 GiB
Duration                         : 1h 20mn
Overall bit rate                 : 2 579 Kbps
Movie name                       : V.dome.otca.2012.D.DVDRip.IRONCLUB
Director                         : IRONCLUB
Genre                            : Comedy
Writing application              : VirtualDubMod 1.5.10.2 (build 2540/release)
Writing library                  : VirtualDubMod build 2540/release
Original source form/Name        : Movie
Copyright                        : http://ironclub.tv/

Video
ID                               : 0
Format                           : MPEG-4 Visual
Format profile                   : Streaming Video@L1
Format settings, BVOP            : Yes
Format settings, QPel            : No
Format settings, GMC             : No warppoints
Format settings, Matrix          : Custom
Codec ID                         : XVID
Codec ID/Hint                    : XviD
Duration                         : 1h 20mn
Bit rate                         : 1 797 Kbps
Width                            : 720 pixels
Height                           : 400 pixels
Display aspect ratio             : 16/9
Frame rate                       : 25.000 fps
Resolution                       : 24 bits
Colorimetry                      : 4:2:0
Scan type                        : Progressive
Bits/(Pixel*Frame)               : 0.250
Stream size                      : 1.01 GiB (70%)
Writing library                  : XviD 1.2.1 (UTC 2008-12-04)

Audio #1
ID                               : 1
Format                           : AC-3
Format/Info                      : Audio Coding 3
Codec ID                         : 2000
Duration                         : 1h 20mn
Bit rate mode                    : Constant
Bit rate                         : 384 Kbps
Channel(s)                       : 6 channels
Channel positions                : Front: L C R, Surround: L R, LFE
Sampling rate                    : 48.0 KHz
Video delay                      : 1s 550ms
Stream size                      : 222 MiB (15%)
Alignment                        : Split accross interleaves
Interleave, duration             : 40 ms (1.00 video frame)
Interleave, preload duration     : 500 ms

Audio #2
ID                               : 2
Format                           : AC-3
Format/Info                      : Audio Coding 3
Codec ID                         : 2000
Duration                         : 1h 20mn
Bit rate mode                    : Constant
Bit rate                         : 384 Kbps
Channel(s)                       : 6 channels
Channel positions                : Front: L C R, Surround: L R, LFE
Sampling rate                    : 48.0 KHz
Video delay                      : 1s 550ms
Stream size                      : 222 MiB (15%)
Alignment                        : Split accross interleaves
Interleave, duration             : 40 ms (1.00 video frame)
Interleave, preload duration     : 500 ms

Семпл: http://sendfile.su/616365
picpicpic
Для увеличения картинки щелкните мышкой по превью

Этот торрент недоступен для скачивания без регистрации, однако доступен по публичной magnet-ссылке (источники с публичных трекеров). Перед использованием ссылки прочтите, пожалуйста Пользовательское соглашение, а также как можно дольше оставайтесь на раздаче! Для того, чтобы скачать сам торрент-файл (который видит больше источников), а также для того, чтобы поблагодарить релизера, вам необходимо зарегистрироваться. Если регистрироваться лень - вы можете также попробовать скачать релиз по нашим партнерским ссылкам ниже.

[underverse.su].t18367.torrent
Трекер: Зарегистрирован   [ 18.06.2012 19:07 ]  

Статус: проверено (by Паукан at 19.06.2012 17:31)
Поблагодарили: пока никто не поблагодарил...
Тип торрента: публичный - доступные источники с открытых трекеров: 
Размер: 1,46 GB (занимает 1/3 DVDR, для записи нужно 1 болванка DVDR/RW)
 
 
Похожие темы
Форум Тема Автор Торрент Отв. Посл. сооб.
Зарубежное кино [DVDRip, Low-Res HDRip, и т.д.] В доме отца / Casa de mi Padre (Мэтт Пидмонт) [2012 г., комедия, HDRip] WeaSel
4 | 2

0 | 531

23

11.07.2012 15:03


Яндекс.Метрика powered by Sphinx


В Н И М А Н И Е
Сайт не распространяет и не хранит электронные версии произведений, а лишь бесплатно и без коммерческой выгоды (не требуя взамен платы,
SMS и т.д.) предоставляет доступ к создаваемому пользователями каталогу ссылок на торрент-файлы, которые содержат только списки хеш-сумм.
Убедительная просьба с жалобами обращаться напрямую к пользователю, разместившему торрент файл.

Вверх