Loading...
Error

Свидетельство / Evidence (Хоуи Эскинс) [2011 г., ужасы, DVDRip]

Статистика раздачи
Размер:  1,37 GB   |    Зарегистрирован:  4 года 5 месяцев   |    Скачан:  7 раз

Полного источника не было: 3 года 5 месяцев

Сидов:  0  |  0 KB/s  ]   Личеров:  0  |  0 KB/s  ]

* - сиды/пиры с внешних источников

   
 
Автор Сообщение

RG NewCinema 

18-Июн-2012 01:54

Свидетельство / Evidence


Год выпуска: 2011
Жанр: ужасы
Страна: США
Режиссер: Хоуи Эскинс
В ролях: Райан МакКой, Бретт Розенберг, Эбигейл Ричи, Эшли Брекен, Зак Фэйхи, Блейн Грэй, Кейт Льюис, Рисдон Робертс
Сюжет фильма:
Группа молодых людей отправляется в лес, где один из них, Райан, намерен снять документальный фильм об их поездке. Устроив небольшой лагерь посреди лесной чащи, скоро герои фильма делают открытие, которое положит конец безмятежному отдыху.

Поначалу их привлекают странный шум, который вскоре материализуется в некое существо, имеющее, как выясняется, далеко не мирные намерения в отношении компании друзей. Фильм, который они пытались снимать, в итоге станет единственным свидетельством того, что же произошло на самом деле...

  • Мировая премьера: 7 июня 2012

/
Качество видео: DVDRip

Продолжительность: 01:18:39

Формат: avi
Видео: XviD, 720x400, 2031 kbps
Аудио: русский, одноголосый закадровый [любительский], AC3 5.1, 448 kbps

Код:

General
Complete name                    : D:\Video\Sources\Svidetelstvo.2011.L1.DVDRip.1400MB.avi
Format                           : AVI
Format/Info                      : Audio Video Interleave
File size                        : 1.37 GiB
Duration                         : 1h 18mn
Overall bit rate                 : 2 489 Kbps
Writing application              : VirtualDubMod 1.5.10.2 (build 2540/release)
Writing library                  : VirtualDubMod build 2540/release

Video
ID                               : 0
Format                           : MPEG-4 Visual
Format profile                   : Streaming Video@L1
Format settings, BVOP            : Yes
Format settings, QPel            : No
Format settings, GMC             : No warppoints
Format settings, Matrix          : Custom
Codec ID                         : XVID
Codec ID/Hint                    : XviD
Duration                         : 1h 18mn
Bit rate                         : 2 032 Kbps
Width                            : 720 pixels
Height                           : 400 pixels
Display aspect ratio             : 16/9
Frame rate                       : 23.976 fps
Resolution                       : 24 bits
Colorimetry                      : 4:2:0
Scan type                        : Progressive
Bits/(Pixel*Frame)               : 0.294
Stream size                      : 1.12 GiB (82%)
Writing library                  : XviD 1.2.1 (UTC 2008-12-04)

Audio
ID                               : 1
Format                           : AC-3
Format/Info                      : Audio Coding 3
Codec ID                         : 2000
Duration                         : 1h 18mn
Bit rate mode                    : Constant
Bit rate                         : 448 Kbps
Channel(s)                       : 6 channels
Channel positions                : Front: L C R, Surround: L R, LFE
Sampling rate                    : 48.0 KHz
Stream size                      : 252 MiB (18%)
Alignment                        : Split accross interleaves
Interleave, duration             : 42 ms (1.00 video frame)
Interleave, preload duration     : 500 ms

Семпл: http://multi-up.com/720281
picpicpic
Для увеличения картинки щелкните мышкой по превью

Этот торрент недоступен для скачивания без регистрации, однако доступен по публичной magnet-ссылке (источники с публичных трекеров). Перед использованием ссылки прочтите, пожалуйста Пользовательское соглашение, а также как можно дольше оставайтесь на раздаче! Для того, чтобы скачать сам торрент-файл (который видит больше источников), а также для того, чтобы поблагодарить релизера, вам необходимо зарегистрироваться. Если регистрироваться лень - вы можете также попробовать скачать релиз по нашим партнерским ссылкам ниже.

[underverse.su].t18359.torrent
Трекер: Зарегистрирован   [ 18.06.2012 01:54 ]  

Статус: проверено (by Паукан at 18.06.2012 01:55)
Поблагодарили: пока никто не поблагодарил...
Тип торрента: публичный - доступные источники с открытых трекеров: 
Размер: 1,37 GB (занимает 0,31 DVDR, для записи нужно 1 болванка DVDR/RW)
 
 
Похожие темы
Форум Тема Автор Торрент Отв. Посл. сооб.
Системы для бизнеса Свидетельство о регистрации ТС 2.7.9 x86+x64 RUS Паукан
69 | 0

0 | 221

13

15.11.2016 10:16


Яндекс.Метрика powered by Sphinx


В Н И М А Н И Е
Сайт не распространяет и не хранит электронные версии произведений, а лишь бесплатно и без коммерческой выгоды (не требуя взамен платы,
SMS и т.д.) предоставляет доступ к создаваемому пользователями каталогу ссылок на торрент-файлы, которые содержат только списки хеш-сумм.
Убедительная просьба с жалобами обращаться напрямую к пользователю, разместившему торрент файл.

Вверх