Loading...
Error

Горец / Highlander (Рассел Малкэй) [1986 г., фэнтези, боевик, HDRip] (Rus, Ukr, Eng) HQ Underverse

Статистика раздачи
Размер:  2,17 GB   |    Зарегистрирован:  4 года 5 месяцев   |    Скачан:  16 раз
Сидов:  5  |  0 KB/s  ]   Личеров:  0  |  0 KB/s  ]

* - сиды/пиры с внешних источников

   
 
Автор Сообщение

HQ Underverse 

17-Июн-2012 22:26

Горец / Highlander


Год выпуска: 1986
Жанр: фэнтези, боевик
Страна: США
Режиссер: Рассел Малкэй
В ролях: Кристофер Ламберт, Роксэнн Харт, Клэнси Браун, Шон Коннери, Бети Эдни, Алан Норт, Джон Полито, Шила Гиш, Хью Куарши, Кристофер Малкольм
Сюжет фильма:
Коннор Маклауд шотландец, который в 1536 году был сражен в битве, но мистическим образом воскрес, и родной клан изгнал его. Учителем Маклауда стал испанский дворянин, объяснивший, что он принадлежит к бессмертной расе воинов, которых можно лишить жизни, лишь обезглавив мечом. Сражение между Маклаудом и его вечным врагом Курганом, начавшееся в Шотландии XVI века, подолжается в современном Манхеттене. От исхода этой битвы зависит судьба всех смертных. Это часть дуэли, продолжающейся веками.

  • Мировая премьера: 7 марта 1986

|
Качество видео: HDRip

Продолжительность: 01:56:39

Формат: avi
Видео: XviD, 704x384, 2198 kbps
Аудио #1: русский, многоголосый закадровый [профессиональный], AC3 5.1, 448 kbps
Аудио #2: английский, оригинал, AC3 5.1, 448 kbps (отдельным файлом: здесь)
Аудио #3: украинский, многоголосый закадровый [профессиональный], AC3 5.1, 384 kbps (отдельным файлом: здесь)
Субтитры #1: внешние, SRT, английский (на narod.ru)
Субтитры #2: внешние, SRT, русский (на narod.ru)

Код:

General
Complete name                    : D:\Video\HQ-Rips\Горец\Highlander.1986.HDRip.XviD.AC3.Rus.P.HQ.Underverse.avi
Format                           : AVI
Format/Info                      : Audio Video Interleave
Format profile                   : OpenDML
File size                        : 2.17 GiB
Duration                         : 1h 56mn
Overall bit rate                 : 2 659 Kbps
Writing application              : VirtualDubMod 1.5.10.2 (build 2542/release)
Writing library                  : VirtualDubMod build 2542/release

Video
ID                               : 0
Format                           : MPEG-4 Visual
Format profile                   : Streaming Video@L1
Format settings, BVOP            : Yes
Format settings, QPel            : No
Format settings, GMC             : No warppoints
Format settings, Matrix          : Custom
Muxing mode                      : Packed bitstream
Codec ID                         : XVID
Codec ID/Hint                    : XviD
Duration                         : 1h 56mn
Bit rate                         : 2 198 Kbps
Width                            : 704 pixels
Height                           : 384 pixels
Display aspect ratio             : 16/9
Frame rate                       : 24.000 fps
Resolution                       : 24 bits
Colorimetry                      : 4:2:0
Scan type                        : Progressive
Bits/(Pixel*Frame)               : 0.339
Stream size                      : 1.79 GiB (83%)
Writing library                  : XviD 64

Audio
ID                               : 1
Format                           : AC-3
Format/Info                      : Audio Coding 3
Codec ID                         : 2000
Duration                         : 1h 56mn
Bit rate mode                    : Constant
Bit rate                         : 448 Kbps
Channel(s)                       : 6 channels
Channel positions                : Front: L C R, Surround: L R, LFE
Sampling rate                    : 48.0 KHz
Stream size                      : 374 MiB (17%)
Alignment                        : Split accross interleaves
Interleave, duration             : 42 ms (1.00 video frame)
Interleave, preload duration     : 500 ms

General
Complete name                    : D:\Video\HQ-Rips\Горец\Highlander.1986.HDRip.XviD.AC3.Rus.P.HQ.Underverse.ENG.ac3
Format                           : AC-3
Format/Info                      : Audio Coding 3
File size                        : 374 MiB
Duration                         : 1h 56mn
Overall bit rate                 : 448 Kbps

Audio
Format                           : AC-3
Format/Info                      : Audio Coding 3
Duration                         : 1h 56mn
Bit rate mode                    : Constant
Bit rate                         : 448 Kbps
Channel(s)                       : 6 channels
Channel positions                : Front: L C R, Surround: L R, LFE
Sampling rate                    : 48.0 KHz
Stream size                      : 374 MiB (100%)

General
Complete name                    : D:\Video\HQ-Rips\Горец\Highlander.1986.HDRip.XviD.AC3.Rus.P.HQ.Underverse.UKR.ac3
Format                           : AC-3
Format/Info                      : Audio Coding 3
File size                        : 320 MiB
Duration                         : 1h 56mn
Overall bit rate                 : 384 Kbps

Audio
Format                           : AC-3
Format/Info                      : Audio Coding 3
Duration                         : 1h 56mn
Bit rate mode                    : Constant
Bit rate                         : 384 Kbps
Channel(s)                       : 6 channels
Channel positions                : Front: L C R, Surround: L R, LFE
Sampling rate                    : 48.0 KHz
Stream size                      : 320 MiB (100%)

Релиз группы:

pic pic pic
Для увеличения картинки щелкните мышкой по превью

Этот торрент недоступен для скачивания без регистрации, однако доступен по публичной magnet-ссылке (источники с публичных трекеров). Перед использованием ссылки прочтите, пожалуйста Пользовательское соглашение, а также как можно дольше оставайтесь на раздаче! Для того, чтобы скачать сам торрент-файл (который видит больше источников), а также для того, чтобы поблагодарить релизера, вам необходимо зарегистрироваться. Если регистрироваться лень - вы можете также попробовать скачать релиз по нашим партнерским ссылкам ниже.

[underverse.su].t18356.torrent
Трекер: Зарегистрирован   [ 17.06.2012 22:26 ]  

Статус: проверено (by HQ Underverse at 17.06.2012 22:28)
Поблагодарили: 3 человека
Тип торрента: публичный - доступные источники с открытых трекеров: 
Размер: 2,17 GB (занимает 0,49 DVDR, для записи нужно 1 болванка DVDR/RW)
 
 
Похожие темы
Форум Тема Автор Торрент Отв. Посл. сооб.
Зарубежные сериалы Горец / Highlander / Сезон 1-6 of 6 [1992-1998 г., боевиик, приключения, фантастика, TVRip] MVO Печаль'ka
2 | 1

0 | 851

12

21.01.2014 15:57

al.docs 

15-Апр-2013 07:46

Спасибо!

Яндекс.Метрика powered by Sphinx


В Н И М А Н И Е
Сайт не распространяет и не хранит электронные версии произведений, а лишь бесплатно и без коммерческой выгоды (не требуя взамен платы,
SMS и т.д.) предоставляет доступ к создаваемому пользователями каталогу ссылок на торрент-файлы, которые содержат только списки хеш-сумм.
Убедительная просьба с жалобами обращаться напрямую к пользователю, разместившему торрент файл.

Вверх