Loading...
Error

Нарушая правила / Bending the Rules (Арти Мандельберг) [2012 г., боевик, драма, HDRip]

Статистика раздачи
Размер:  1,37 GB   |    Зарегистрирован:  4 года 5 месяцев   |    Скачан:  18 раз

Полного источника не было: 3 года

Сидов:  0  |  0 KB/s  ]   Личеров:  0  |  0 KB/s  ]

* - сиды/пиры с внешних источников

   
 
Автор Сообщение

RG NewCinema 

17-Июн-2012 11:34

Нарушая правила / Bending the Rules


Год выпуска: 2012
Жанр: боевик, драма
Страна: США
Режиссер: Арти Мандельберг
В ролях: Адам Коуплэнд, Джейми Кеннеди, Д’Арси Аллен, Тереза Альварез, Рэнди Остин, Кирк Бовилл, Кеннет Браун мл., Эрик Браун, Jan Chategnier, Томас С. Дэниэл
Сюжет фильма:
Окружной прокурор настроен снять c должности коррумпированного Ново-Орлеанского полицейского. Однако, события завязываются таким образом, что они становятся бок о бок в борьбе против бандитских группировок.

  • Мировая премьера: 9 марта 2012

/
Качество видео: HDRip

Продолжительность: 01:23:36

Формат: avi
Видео: XviD, 720x384, 1946 kbps
Аудио #1: русский, одноголосый закадровый [любительский], MP3 2.0, 127 kbps
Аудио #2: английский, оригинал, AC3 5.1, 256 kbps

Код:

General
Complete name                    : D:\Video\Sources\Narushaya.pravila.2012.L1.HDRip.avi
Format                           : AVI
Format/Info                      : Audio Video Interleave
File size                        : 1.37 GiB
Duration                         : 1h 23mn
Overall bit rate                 : 2 345 Kbps
Writing application              : VirtualDubMod 1.5.10.2 (build 2542/release)
Writing library                  : VirtualDubMod build 2542/release

Video
ID                               : 0
Format                           : MPEG-4 Visual
Format profile                   : Streaming Video@L1
Format settings, BVOP            : Yes
Format settings, QPel            : No
Format settings, GMC             : No warppoints
Format settings, Matrix          : Default (H.263)
Codec ID                         : XVID
Codec ID/Hint                    : XviD
Duration                         : 1h 23mn
Bit rate                         : 1 947 Kbps
Width                            : 720 pixels
Height                           : 384 pixels
Display aspect ratio             : 1.875
Frame rate                       : 23.976 fps
Resolution                       : 24 bits
Colorimetry                      : 4:2:0
Scan type                        : Progressive
Bits/(Pixel*Frame)               : 0.294
Stream size                      : 1.14 GiB (83%)
Writing library                  : XviD 1.2.1 (UTC 2008-12-04)

Audio #1
ID                               : 1
Format                           : MPEG Audio
Format version                   : Version 1
Format profile                   : Layer 3
Codec ID                         : 55
Codec ID/Hint                    : MP3
Duration                         : 1h 23mn
Bit rate mode                    : Variable
Bit rate                         : 128 Kbps
Channel(s)                       : 2 channels
Sampling rate                    : 44.1 KHz
Resolution                       : 16 bits
Stream size                      : 76.5 MiB (5%)
Alignment                        : Split accross interleaves
Interleave, duration             : 42 ms (1.00 video frame)
Interleave, preload duration     : 500 ms

Audio #2
ID                               : 2
Format                           : AC-3
Format/Info                      : Audio Coding 3
Codec ID                         : 2000
Duration                         : 1h 23mn
Bit rate mode                    : Constant
Bit rate                         : 256 Kbps
Channel(s)                       : 6 channels
Channel positions                : Front: L C R, Surround: L R, LFE
Sampling rate                    : 48.0 KHz
Stream size                      : 153 MiB (11%)
Alignment                        : Split accross interleaves
Interleave, duration             : 42 ms (1.00 video frame)
Interleave, preload duration     : 500 ms

Семпл: http://multi-up.com/719955
picpicpic
Для увеличения картинки щелкните мышкой по превью

Этот торрент недоступен для скачивания без регистрации, однако доступен по публичной magnet-ссылке (источники с публичных трекеров). Перед использованием ссылки прочтите, пожалуйста Пользовательское соглашение, а также как можно дольше оставайтесь на раздаче! Для того, чтобы скачать сам торрент-файл (который видит больше источников), а также для того, чтобы поблагодарить релизера, вам необходимо зарегистрироваться. Если регистрироваться лень - вы можете также попробовать скачать релиз по нашим партнерским ссылкам ниже.

[underverse.su].t18352.torrent
Трекер: Зарегистрирован   [ 17.06.2012 11:34 ]  

Статус: проверено (by Паукан at 17.06.2012 12:08)
Поблагодарили: 1 человек
Тип торрента: публичный - доступные источники с открытых трекеров: 
Размер: 1,37 GB (занимает 0,31 DVDR, для записи нужно 1 болванка DVDR/RW)
 
 
Похожие темы
Форум Тема Автор Торрент Отв. Посл. сооб.
Зарубежное кино [DVDRip, Low-Res HDRip, и т.д.] Нарушая правила / Bending the Rules (Арти Мандельберг) [2012 г., боевик, комедия, драма, HDRip-AVC] WeaSel
11 | 0

0 | 610

17

25.06.2012 19:20

* Зарубежное кино [DVDRip, Low-Res HDRip, и т.д.] Нарушая правила / Bending the Rules (Арти Мандельберг / Artie Mandelberg) [2012 г., боевик, комедия, HDRip] MVO + Original [НТВ+] Gaarochi

8 | 1476

22.06.2013 06:57

Зарубежное кино [DVDRip, Low-Res HDRip, и т.д.] Нарушая правила / Bending the Rules (Арти Мандельберг / Artie Mandelberg) [2012 г., Боевик, комедия, HDRip-AVC] DVO + Original НТВ+ Gaarochi
1 | 0

0 | 1500

19

21.06.2013 04:21

sbrserjo Пол:Муж

17-Июн-2012 15:08

Ни одной известной рожи :shock:

Яндекс.Метрика powered by Sphinx


В Н И М А Н И Е
Сайт не распространяет и не хранит электронные версии произведений, а лишь бесплатно и без коммерческой выгоды (не требуя взамен платы,
SMS и т.д.) предоставляет доступ к создаваемому пользователями каталогу ссылок на торрент-файлы, которые содержат только списки хеш-сумм.
Убедительная просьба с жалобами обращаться напрямую к пользователю, разместившему торрент файл.

Вверх