Loading...
Error

Последнее завещание Нобеля / Nobels testamente (Петер Флинт) [2011 г., триллер, драма, криминал, детектив, HDRip] [лицензия]

Статистика раздачи
Размер:  1,37 GB   |    Зарегистрирован:  5 лет 1 месяц   |    Скачан:  8 раз

Полного источника не было: 3 года

Сидов:  0  |  0 KB/s  ]   Личеров:  0  |  0 KB/s  ]

* - сиды/пиры с внешних источников

   
 
Автор Сообщение

RG NewCinema 

17-Июн-2012 11:28

Последнее завещание Нобеля / Nobels testamente


Год выпуска: 2011
Жанр: триллер, драма, криминал, детектив
Страна: Швеция
Режиссер: Петер Флинт
В ролях: Малин Крепин, Бьёрн Чьелльман, Лейф Андре, Кайса Эрнст, Эрик Йоханссон, Феликс Энгстрем, Ричард Ульфзэтер, Антье Трое, Пер Граффман, Бьёрн Гранат
Сюжет фильма:
Во время торжественного ужина по случаю вручения Нобелевской премии репортер криминальной хроники Аника Бенгцтон становится невольным свидетелем убийства высокопоставленного чиновника. Полиция запрещает ей оглашать какие-либо подробности по делу, но репортер до мозга костей не в силах противиться журналистскому призванию. Аника начинает самостоятельное расследование, которое приводит ее к страшной разгадке.

  • Мировая премьера: 2 марта 2012
  • Российская премьера: 12 апреля 2012, Каравелла DDC

/
Качество видео: HDRip

Продолжительность: 01:32:41

Формат: avi
Видео: XviD, 720x304, 1721 kbps
Аудио: русский, дублированный [лицензия], AC3 5.1, 384 kbps

Код:

General
Complete name                    : D:\Video\Sources\Poslednee.zaveshanie.nobelja.2012.D.HDRip.1400MB.avi
Format                           : AVI
Format/Info                      : Audio Video Interleave
File size                        : 1.37 GiB
Duration                         : 1h 32mn
Overall bit rate                 : 2 115 Kbps
Writing application              : VirtualDubMod 1.5.10.2 (build 2542/release)
Writing library                  : VirtualDubMod build 2542/release

Video
ID                               : 0
Format                           : MPEG-4 Visual
Format profile                   : Streaming Video@L1
Format settings, BVOP            : Yes
Format settings, QPel            : No
Format settings, GMC             : No warppoints
Format settings, Matrix          : Default (MPEG)
Codec ID                         : XVID
Codec ID/Hint                    : XviD
Duration                         : 1h 32mn
Bit rate                         : 1 722 Kbps
Width                            : 720 pixels
Height                           : 304 pixels
Display aspect ratio             : 2.35
Frame rate                       : 24.000 fps
Resolution                       : 24 bits
Colorimetry                      : 4:2:0
Scan type                        : Progressive
Bits/(Pixel*Frame)               : 0.328
Stream size                      : 1.11 GiB (81%)
Writing library                  : XviD 1.2.1 (UTC 2008-12-04)

Audio
ID                               : 1
Format                           : AC-3
Format/Info                      : Audio Coding 3
Codec ID                         : 2000
Duration                         : 1h 32mn
Bit rate mode                    : Constant
Bit rate                         : 384 Kbps
Channel(s)                       : 6 channels
Channel positions                : Front: L C R, Surround: L R, LFE
Sampling rate                    : 48.0 KHz
Video delay                      : 16ms
Stream size                      : 255 MiB (18%)
Alignment                        : Split accross interleaves
Interleave, duration             : 42 ms (1.00 video frame)
Interleave, preload duration     : 500 ms

Семпл: http://multi-up.com/719447
picpicpic
Для увеличения картинки щелкните мышкой по превью

Этот торрент недоступен для скачивания без регистрации, однако доступен по публичной magnet-ссылке (источники с публичных трекеров). Перед использованием ссылки прочтите, пожалуйста Пользовательское соглашение, а также как можно дольше оставайтесь на раздаче! Для того, чтобы скачать сам торрент-файл (который видит больше источников), а также для того, чтобы поблагодарить релизера, вам необходимо зарегистрироваться. Если регистрироваться лень - вы можете также попробовать скачать релиз по нашим партнерским ссылкам ниже.

[underverse.su].t18351.torrent
Трекер: Зарегистрирован   [ 17.06.2012 11:28 ]  

Статус: проверено (by Паукан at 17.06.2012 12:09)
Поблагодарили: пока никто не поблагодарил...
Тип торрента: публичный - доступные источники с открытых трекеров: 
Размер: 1,37 GB (занимает 0,31 DVDR, для записи нужно 1 болванка DVDR/RW)
 
 
Похожие темы
Форум Тема Автор Торрент Отв. Посл. сооб.
Зарубежное кино [DVDRip, Low-Res HDRip, и т.д.] Последнее дыхание / Respire (Дэвид А. Кросс) [2009 г., триллер, DVDRip] H. Ledger
0 | 0

1 | 720

14

14.07.2012 12:17

Зарубежное кино [DVDRip, Low-Res HDRip, и т.д.] Последнее изгнание дьявола: Второе пришествие / The Last Exorcism Part II (Эд Гасс-Доннели) [2013 г., ужасы, триллер, HDRip] | UNRATED | Dub (звук с CAMRip) + Original Чертёнок
22 | 0

0 | 871

28

31.05.2013 18:33

Зарубежное кино [DVDRip, Low-Res HDRip, и т.д.] Последнее дело Ламарки / City by the Sea (Майкл Кэтон-Джонс / Michael Caton-Jones) [2002 г., драма, триллер, детектив, DVDRip] MVO 90ytr90
5 | 0

0 | 1809

8

08.01.2014 16:39

Зарубежное кино [DVDRip, Low-Res HDRip, и т.д.] Последнее искушение Христа / The Last Temptation of Christ (Мартин Скорсезе / Martin Scorsese) [1988 г., драма, BDRip] MVO + Original garry
5 | 0

0 | 1332

4

15.02.2014 23:03

Зарубежное кино [DVDRip, Low-Res HDRip, и т.д.] Последнее искушение Христа / The Last Temptation of Christ (Мартин Скорсезе / Martin Scorsese) [1988 г., драма, HDRip-AVC] MVO + Original garry
22 | 1

0 | 1438

6

15.02.2014 23:30

T Зарубежное кино [DVDRip, Low-Res HDRip, и т.д.] Последнее лицо / The Last Face (Шон Пенн) [2016 г., драма, HDRip] MVO (@MUZOBOZ@) makkol
10 | 0

1 | 689

4

31.05.2017 11:04

T Зарубежное кино [DVDRip, Low-Res HDRip, и т.д.] Последнее изгнание дьявола: Второе пришествие / The Last Exorcism Part II (Эд Гасс-Доннели / Ed Gass-Donnelly) [2013 г., ужасы, триллер, HDRip] [UNRATED] Dub (чистый звук) 90ytr90
1 | 0

0 | 644

8

17.02.2015 20:32

Зарубежное кино [DVDRip, Low-Res HDRip, и т.д.] Последнее турне / Hin und weg (Кристиан Цюберт) [2014 г., драма, комедия, HDRip] VO [ViruseProject] Паукан
2 | 0

0 | 806

20

27.05.2015 12:48

Зарубежное кино [DVDRip, Low-Res HDRip, и т.д.] Последнее проклятие / Ju-on: Za fainaru (Масаюки Отиай) [2015 г., ужасы, HDRip] MVO makkol
5 | 0

0 | 506

2

26.07.2016 12:56

T Зарубежное кино [DVDRip, Low-Res HDRip, и т.д.] Последнее слово / Johnny Frank Garrett's Last Word (Саймон Рамли) [2016 г., ужасы, WEB-DLRip] MVO (Синема УС) makkol
35 | 2

0 | 501

7

20.03.2017 11:50


Яндекс.Метрика powered by Sphinx


В Н И М А Н И Е
Сайт не распространяет и не хранит электронные версии произведений, а лишь бесплатно и без коммерческой выгоды (не требуя взамен платы,
SMS и т.д.) предоставляет доступ к создаваемому пользователями каталогу ссылок на торрент-файлы, которые содержат только списки хеш-сумм.
Убедительная просьба с жалобами обращаться напрямую к пользователю, разместившему торрент файл.

Вверх