Loading...
Error

Бунтарка / Radio Rebel (Питер Хауит) [2012 г., драма, HDTVRip]

Статистика раздачи
Размер:  1,37 GB   |    Зарегистрирован:  4 года 5 месяцев   |    Скачан:  14 раз

Полного источника не было: 2 года 7 месяцев

Сидов:  0  |  0 KB/s  ]   Личеров:  0  |  0 KB/s  ]

* - сиды/пиры с внешних источников

   
 
Автор Сообщение

RG NewCinema 

17-Июн-2012 11:21

Бунтарка / Radio Rebel


Год выпуска: 2012
Жанр: драма
Страна: США
Режиссер: Питер Хауит
В ролях: Дебби Райан, Sarena Parmar, Адам ДиМарко, Мерритт Паттерсон, Элли Бертрам, Айэйн Белчер, Роуэн Кан, Аттикус Дин Митчел, Мерседес Де Ла Зерда, Андреа Брукс
Сюжет фильма:
Старшекласснице Таре приходится многое преодолеть, чтобы побороть застенчивость и заявить о себе во весь голос. На первый взгляд, она настоящая «серая мышка». Но в домашней радиостудии скромница, которая панически боится выступления у доски, превращается в звезду эфира. Стоит закрыться в своей комнате и надеть наушники, и она уже не тихоня, а возмутительница спокойствия — Бунтарка! Не стесняясь в выражениях, девушка высказывает все, что думает о своих обидчиках. Ее радиошоу интригует весь город: в незнакомку влюбляются и одноклассники, и парень ее мечты. Но лишь один человек — отчим Тары, продюсер радиостанции штата — знает ее секрет...

  • Мировая премьера: 17 февраля 2012

|
Качество видео: HDTVRip

Продолжительность: 01:29:31

Формат: avi
Видео: XviD, 720x400, 1596 kbps
Аудио #1: русский, дублированный [лицензия, Канал "Дисней"], AC3 2.0, 192 kbps
Аудио #2: английский, оригинал, AC3 5.1, 384 kbps

Код:

General
Complete name                    : D:\Video\Sources\Buntarka.2012.D.HDTVRip.avi
Format                           : AVI
Format/Info                      : Audio Video Interleave
File size                        : 1.37 GiB
Duration                         : 1h 29mn
Overall bit rate                 : 2 187 Kbps
Writing application              : VirtualDubModRus 1.5.10.1 (build 2439/release)
Writing library                  : VirtualDubMod build 2439/release

Video
ID                               : 0
Format                           : MPEG-4 Visual
Format profile                   : Streaming Video@L1
Format settings, BVOP            : Yes
Format settings, QPel            : No
Format settings, GMC             : No warppoints
Format settings, Matrix          : Default (H.263)
Codec ID                         : XVID
Codec ID/Hint                    : XviD
Duration                         : 1h 29mn
Bit rate                         : 1 597 Kbps
Width                            : 720 pixels
Height                           : 400 pixels
Display aspect ratio             : 16/9
Frame rate                       : 23.976 fps
Resolution                       : 24 bits
Colorimetry                      : 4:2:0
Scan type                        : Progressive
Bits/(Pixel*Frame)               : 0.231
Stream size                      : 1 022 MiB (73%)
Writing library                  : XviD 1.2.1 (UTC 2008-12-04)

Audio #1
ID                               : 1
Format                           : AC-3
Format/Info                      : Audio Coding 3
Codec ID                         : 2000
Duration                         : 1h 29mn
Bit rate mode                    : Constant
Bit rate                         : 192 Kbps
Channel(s)                       : 2 channels
Channel positions                : L R
Sampling rate                    : 48.0 KHz
Stream size                      : 123 MiB (9%)
Alignment                        : Split accross interleaves
Interleave, duration             : 42 ms (1.00 video frame)
Interleave, preload duration     : 500 ms

Audio #2
ID                               : 2
Format                           : AC-3
Format/Info                      : Audio Coding 3
Codec ID                         : 2000
Duration                         : 1h 29mn
Bit rate mode                    : Constant
Bit rate                         : 384 Kbps
Channel(s)                       : 6 channels
Channel positions                : Front: L C R, Surround: L R, LFE
Sampling rate                    : 48.0 KHz
Stream size                      : 246 MiB (18%)
Alignment                        : Split accross interleaves
Interleave, duration             : 42 ms (1.00 video frame)
Interleave, preload duration     : 500 ms

Семпл: http://multi-up.com/719811
picpicpic
Для увеличения картинки щелкните мышкой по превью

Этот торрент недоступен для скачивания без регистрации, однако доступен по публичной magnet-ссылке (источники с публичных трекеров). Перед использованием ссылки прочтите, пожалуйста Пользовательское соглашение, а также как можно дольше оставайтесь на раздаче! Для того, чтобы скачать сам торрент-файл (который видит больше источников), а также для того, чтобы поблагодарить релизера, вам необходимо зарегистрироваться. Если регистрироваться лень - вы можете также попробовать скачать релиз по нашим партнерским ссылкам ниже.

[underverse.su].t18350.torrent
Трекер: Зарегистрирован   [ 17.06.2012 11:21 ]  

Статус: проверено (by Паукан at 17.06.2012 12:08)
Поблагодарили: пока никто не поблагодарил...
Тип торрента: публичный - доступные источники с открытых трекеров: 
Размер: 1,37 GB (занимает 0,31 DVDR, для записи нужно 1 болванка DVDR/RW)
 
 

NewTor Пол:Муж

23-Июн-2012 03:06

Посмотрим.

Яндекс.Метрика powered by Sphinx


В Н И М А Н И Е
Сайт не распространяет и не хранит электронные версии произведений, а лишь бесплатно и без коммерческой выгоды (не требуя взамен платы,
SMS и т.д.) предоставляет доступ к создаваемому пользователями каталогу ссылок на торрент-файлы, которые содержат только списки хеш-сумм.
Убедительная просьба с жалобами обращаться напрямую к пользователю, разместившему торрент файл.

Вверх