Loading...
Error

Женщина из Пятого округа / La femme du Veme (Павел Павликовский) [2011 г., триллер, HDRip]

Статистика раздачи
Размер:  1,36 GB   |    Зарегистрирован:  4 года 5 месяцев   |    Скачан:  14 раз

Полного источника не было: 3 года 11 месяцев

Сидов:  0  |  0 KB/s  ]   Личеров:  0  |  0 KB/s  ]

* - сиды/пиры с внешних источников

   
 
Автор Сообщение

RG NewCinema 

15-Июн-2012 09:29

Женщина из Пятого округа / La femme du Veme


Год выпуска: 2011
Жанр: триллер
Страна: Франция
Режиссер: Павел Павликовский
В ролях: Этан Хоук, Кристин Скотт Томас, Джоэнна Кулиг, Самир Гесми, Дельфина Шийо, Джули Папильон, Джефри Кэри, Mamadou Minte, Мохамед Арусси, Жан-Луи Кассарино
Сюжет фильма:
Американский писатель Том Рикс после скандала на работе и увольнения улетает в Париж, чтобы заняться воспитанием дочери. Но все складывается не так, как задумывалось. В Париже Рик вынужден устроиться работать ночным сторожем, чтобы как-то свести концы с концами. Однажды на литературном вечере он знакомится с очаровательной вдовой Марджит. Но Том даже представить себе не мог, на что она способна, чтобы удержать его

  • Мировая премьера: 11 сентября 2011

|
Качество видео: HDRip

Продолжительность: 01:23:37

Формат: avi
Видео: XviD, 720x384, 1877 kbps
Аудио: русский, многоголосый закадровый [профессиональный], AC3 5.1, 448 kbps

Код:

General
Complete name                    : C:\Downloads\Zhenwina.iz.Pjatogo.okruga.2011.HDRip.avi
Format                           : AVI
Format/Info                      : Audio Video Interleave
File size                        : 1.36 GiB
Duration                         : 1h 23mn
Overall bit rate                 : 2 335 Kbps
Writing application              : VirtualDubMod 1.5.10.2 (build 2540/release)
Writing library                  : VirtualDubMod build 2540/release

Video
ID                               : 0
Format                           : MPEG-4 Visual
Format profile                   : Streaming Video@L1
Format settings, BVOP            : Yes
Format settings, QPel            : No
Format settings, GMC             : No warppoints
Format settings, Matrix          : Default (H.263)
Codec ID                         : XVID
Codec ID/Hint                    : XviD
Duration                         : 1h 23mn
Bit rate                         : 1 877 Kbps
Width                            : 720 pixels
Height                           : 384 pixels
Display aspect ratio             : 1.875
Frame rate                       : 24.000 fps
Resolution                       : 24 bits
Colorimetry                      : 4:2:0
Scan type                        : Progressive
Bits/(Pixel*Frame)               : 0.283
Stream size                      : 1.10 GiB (80%)
Writing library                  : XviD 1.2.1 (UTC 2008-12-04)

Audio
ID                               : 1
Format                           : AC-3
Format/Info                      : Audio Coding 3
Codec ID                         : 2000
Duration                         : 1h 23mn
Bit rate mode                    : Constant
Bit rate                         : 448 Kbps
Channel(s)                       : 6 channels
Channel positions                : Front: L C R, Surround: L R, LFE
Sampling rate                    : 48.0 KHz
Stream size                      : 268 MiB (19%)
Alignment                        : Split accross interleaves
Interleave, duration             : 42 ms (1.00 video frame)
Interleave, preload duration     : 500 ms

Семпл: http://multi-up.com/719007
picpicpic
Для увеличения картинки щелкните мышкой по превью

Этот торрент недоступен для скачивания без регистрации, однако доступен по публичной magnet-ссылке (источники с публичных трекеров). Перед использованием ссылки прочтите, пожалуйста Пользовательское соглашение, а также как можно дольше оставайтесь на раздаче! Для того, чтобы скачать сам торрент-файл (который видит больше источников), а также для того, чтобы поблагодарить релизера, вам необходимо зарегистрироваться. Если регистрироваться лень - вы можете также попробовать скачать релиз по нашим партнерским ссылкам ниже.

[underverse.su].t18323.torrent
Трекер: Зарегистрирован   [ 15.06.2012 09:29 ]  

Статус: проверено (by garry at 15.06.2012 10:14)
Поблагодарили: 1 человек
Тип торрента: публичный - доступные источники с открытых трекеров: 
Размер: 1,36 GB (занимает 0,31 DVDR, для записи нужно 1 болванка DVDR/RW)
 
 

kie10805 Пол:Муж

09-Окт-2012 17:37

народ дайте скорости скачать

kie10805 Пол:Муж

10-Окт-2012 18:50

ну что так ни кто и недает скачать????????? :crazy:

Яндекс.Метрика powered by Sphinx


В Н И М А Н И Е
Сайт не распространяет и не хранит электронные версии произведений, а лишь бесплатно и без коммерческой выгоды (не требуя взамен платы,
SMS и т.д.) предоставляет доступ к создаваемому пользователями каталогу ссылок на торрент-файлы, которые содержат только списки хеш-сумм.
Убедительная просьба с жалобами обращаться напрямую к пользователю, разместившему торрент файл.

Вверх