Loading...
Error

Убийство / Doodslag (Питер Койперс) [2012 г., триллер, DVDRip]

Статистика раздачи
Размер:  1,37 GB   |    Зарегистрирован:  4 года 5 месяцев   |    Скачан:  13 раз

Полного источника не было: 4 года 5 месяцев

Сидов:  0  |  0 KB/s  ]   Личеров:  0  |  0 KB/s  ]

* - сиды/пиры с внешних источников

   
 
Автор Сообщение

RG NewCinema 

15-Июн-2012 09:25

Убийство / Doodslag


Год выпуска: 2012
Жанр: триллер
Страна: Нидерланды
Режиссер: Питер Койперс
В ролях: Тео Маассен, Гийс Шолтен ван Ашат, Maryam Hassouni, Najib Amhali, Янни Гослинга, Casper van Ouwerkerk, Эрик Ван Сауэрс, Matthijs van Nieuwkerk, Arie Boomsma, Martijn Koning
Сюжет фильма:
Макс работает водителем на скорой помощи. В один день поступает срочный вызов. Женщина рожает с осложнениями и есть угроза жизни ей и ее ребенку. По пути машина сталкивается с бандой, которая перегородила путь, чтоб отвести в больницу парня, который разбил голову катаясь на скутере. Время уходит и Макс бьет парня, пытаясь разблокировать дорогу. Парень умирает в больнице, а в соседней палате лежит спасенная мать и выживший ребенок. Кто такой Макс: герой или убийца?

  • Мировая премьера: 3 января 2012

|
Качество видео: DVDRip

Продолжительность: 01:24:06

Формат: avi
Видео: XviD, 720x304, 2191 kbps
Аудио: русский, одноголосый закадровый [любительский, Xixidok], MP3 2.0, 128 kbps

Код:

General
Complete name                    : D:\Video\Sources\Doodslag.2012.DVDRip.1400MB.avi
Format                           : AVI
Format/Info                      : Audio Video Interleave
File size                        : 1.37 GiB
Duration                         : 1h 24mn
Overall bit rate                 : 2 330 Kbps
Writing application              : VirtualDubMod 1.5.10.3 | www.virtualdub-fr.org || (build 2550/release)
Writing library                  : VirtualDubMod build 2550/release

Video
ID                               : 0
Format                           : MPEG-4 Visual
Format profile                   : Streaming Video@L1
Format settings, BVOP            : Yes
Format settings, QPel            : No
Format settings, GMC             : No warppoints
Format settings, Matrix          : Default (MPEG)
Codec ID                         : XVID
Codec ID/Hint                    : XviD
Duration                         : 1h 24mn
Bit rate                         : 2 192 Kbps
Width                            : 720 pixels
Height                           : 304 pixels
Display aspect ratio             : 2.35
Frame rate                       : 25.000 fps
Resolution                       : 24 bits
Colorimetry                      : 4:2:0
Scan type                        : Progressive
Bits/(Pixel*Frame)               : 0.401
Stream size                      : 1.29 GiB (94%)
Writing library                  : XviD 1.2.1 (UTC 2008-12-04)

Audio
ID                               : 1
Format                           : MPEG Audio
Format version                   : Version 1
Format profile                   : Layer 3
Codec ID                         : 55
Codec ID/Hint                    : MP3
Duration                         : 1h 24mn
Bit rate mode                    : Constant
Bit rate                         : 128 Kbps
Channel(s)                       : 2 channels
Sampling rate                    : 44.1 KHz
Resolution                       : 16 bits
Video delay                      : 19ms
Stream size                      : 77.0 MiB (5%)
Alignment                        : Split accross interleaves
Interleave, duration             : 40 ms (1.00 video frame)
Interleave, preload duration     : 500 ms

Семпл: http://multi-up.com/718602
picpicpic
Для увеличения картинки щелкните мышкой по превью

Этот торрент недоступен для скачивания без регистрации, однако доступен по публичной magnet-ссылке (источники с публичных трекеров). Перед использованием ссылки прочтите, пожалуйста Пользовательское соглашение, а также как можно дольше оставайтесь на раздаче! Для того, чтобы скачать сам торрент-файл (который видит больше источников), а также для того, чтобы поблагодарить релизера, вам необходимо зарегистрироваться. Если регистрироваться лень - вы можете также попробовать скачать релиз по нашим партнерским ссылкам ниже.

[underverse.su].t18322.torrent
Трекер: Зарегистрирован   [ 15.06.2012 09:25 ]  

Статус: проверено (by garry at 15.06.2012 10:13)
Поблагодарили: 3 человека
Тип торрента: публичный - доступные источники с открытых трекеров: 
Размер: 1,37 GB (занимает 0,31 DVDR, для записи нужно 1 болванка DVDR/RW)
 
 
Похожие темы
Форум Тема Автор Торрент Отв. Посл. сооб.
Зарубежные сериалы Убийство / The Killing / 1 Сезон (11 серий из 13) (Эдвард Бьянчи, Агнешка Холланд ) [2011 г., драма, криминал, детектив , WEB-DLRip] Korsar111
0 | 0

2 | 1008

1

30.07.2013 12:37


Яндекс.Метрика powered by Sphinx


В Н И М А Н И Е
Сайт не распространяет и не хранит электронные версии произведений, а лишь бесплатно и без коммерческой выгоды (не требуя взамен платы,
SMS и т.д.) предоставляет доступ к создаваемому пользователями каталогу ссылок на торрент-файлы, которые содержат только списки хеш-сумм.
Убедительная просьба с жалобами обращаться напрямую к пользователю, разместившему торрент файл.

Вверх