Loading...
Error

Шеф / Comme un chef (Дэниэл Коэн) [2012 г., комедия, HDRip-AVC] MVO

Статистика раздачи
Размер:  1,45 GB   |    Зарегистрирован:  2 года 10 месяцев   |    Скачан:  17 раз

Полного источника не было: 1 месяц 21 день

Сидов:  0  |  0 KB/s  ]   Личеров:  0  |  0 KB/s  ]

* - сиды/пиры с внешних источников

   
 
Автор Сообщение

Бишеп Пол:Муж

14-Июн-2012 14:33

Шеф / Comme un chef
Год выпуска: 2012
Жанр: комедия
Страна: Франция, Испания

Режиссер: Дэниэл Коэн
В ролях: Жан Рено, Микаэль Юн, Рафаэль Агоге, Жюльен Буасселье, Салом Стевенен, Серж Ларивье, Исса Думбия, Бан Хэй Мин, Пьер Вернье, Сантьяго Сегура
Сюжет фильма:
Молодой начинающий повар пытается изменить жизненный устой и предпочтения уже известного звёздного шеф-повара, и это упрямство и упорство делает из молодого человека настоящего короля кухни!
  • Мировая премьера: 7 июня 2011
  • Российская премьера: 10 мая 2012, «Top Film Distribution»
/

Качество видео: HDRip

Продолжительность: 01:24:29
Формат: mkv
Видео: x264, 900x376, 1965 kbps
Аудио: русский, профессиональный (многоголосый закадровый) [Лицензия] , AC3 5.1, 448 kbps
Субтитры: Нет

Код:

General
Complete name                    : D:\Desktop\Shef_2012_HDRip_AVC_MVO.mkv
Format                           : Matroska
File size                        : 1.45 GiB
Duration                         : 1h 24mn
Overall bit rate                 : 2 463 Kbps
Encoded date                     : UTC 2012-08-19 19:42:46
Writing application              : mkvmerge v5.6.0 ('Kenya Kane') built on May 27 2012 16:44:04
Writing library                  : libebml v1.2.3 + libmatroska v1.3.0

Video
ID                               : 1
Format                           : AVC
Format/Info                      : Advanced Video Codec
Format profile                   : High@L4.1
Format settings, CABAC           : Yes
Format settings, ReFrames        : 10 frames
Muxing mode                      : Container profile=Unknown@4.1
Codec ID                         : V_MPEG4/ISO/AVC
Duration                         : 1h 24mn
Bit rate                         : 1 966 Kbps
Nominal bit rate                 : 2 013 Kbps
Width                            : 900 pixels
Height                           : 376 pixels
Display aspect ratio             : 2.35
Frame rate                       : 24.000 fps
Resolution                       : 24 bits
Colorimetry                      : 4:2:0
Scan type                        : Progressive
Bits/(Pixel*Frame)               : 0.242
Stream size                      : 1.16 GiB (80%)
Writing library                  : x264 core 125 r2200 999b753
Encoding settings                : cabac=1 / ref=10 / deblock=1:-2:-1 / analyse=0x3:0x113 / me=umh / subme=10 / psy=1 / psy_rd=1.00:0.00 / mixed_ref=1 / me_range=32 / chroma_me=1 / trellis=2 / 8x8dct=1 / cqm=1 / deadzone=21,11 / fast_pskip=0 / chroma_qp_offset=-2 / threads=3 / lookahead_threads=1 / sliced_threads=0 / nr=0 / decimate=0 / interlaced=0 / bluray_compat=0 / constrained_intra=0 / bframes=12 / b_pyramid=2 / b_adapt=2 / b_bias=0 / direct=3 / weightb=1 / open_gop=0 / weightp=2 / keyint=240 / keyint_min=24 / scenecut=40 / intra_refresh=0 / rc_lookahead=40 / rc=2pass / mbtree=1 / bitrate=2013 / ratetol=1.0 / qcomp=0.60 / qpmin=10 / qpmax=51 / qpstep=4 / cplxblur=20.0 / qblur=0.5 / vbv_maxrate=50000 / vbv_bufsize=50000 / nal_hrd=none / ip_ratio=1.40 / aq=1:1.00

Audio
ID                               : 2
Format                           : AC-3
Format/Info                      : Audio Coding 3
Codec ID                         : A_AC3
Duration                         : 1h 24mn
Bit rate mode                    : Constant
Bit rate                         : 448 Kbps
Channel(s)                       : 6 channels
Channel positions                : Front: L C R, Surround: L R, LFE
Sampling rate                    : 48.0 KHz
Stream size                      : 271 MiB (18%)
Language                         : Russian

Автор рипа: S.T.A.L.K.E.R.2 (aka Stalker oK)



picpicpicpicpic
Для увеличения картинки щелкните мышкой по превью

Этот торрент недоступен для скачивания без регистрации, однако доступен по публичной magnet-ссылке (источники с публичных трекеров). Перед использованием ссылки прочтите, пожалуйста Пользовательское соглашение, а также как можно дольше оставайтесь на раздаче! Для того, чтобы скачать сам торрент-файл (который видит больше источников), а также для того, чтобы поблагодарить релизера, вам необходимо зарегистрироваться. Если регистрироваться лень - вы можете также попробовать скачать релиз по нашим партнерским ссылкам ниже.

[underverse.su].t35829.torrent
Трекер: Зарегистрирован   [ 30.01.2014 12:54 ]  

Статус: проверено (by 90ytr90 at 30.01.2014 14:53)
Поблагодарили: пока никто не поблагодарил...
Тип торрента: публичный - доступные источники с открытых трекеров: 
Размер: 1,45 GB (занимает 1/3 DVDR, для записи нужно 1 болванка DVDR/RW)
 
 
Похожие темы
Форум Тема Автор Торрент Отв. Посл. сооб.
Зарубежное кино [DVDRip, Low-Res HDRip, и т.д.] Шеф / Comme un chef (Дэниэл Коэн) [2012 г., комедия, DVDRip] RG NewCinema
6 | 0

4 | 5284

125

30.09.2012 09:26


Яндекс.Метрика powered by Sphinx


В Н И М А Н И Е
Сайт не распространяет и не хранит электронные версии произведений, а лишь бесплатно и без коммерческой выгоды (не требуя взамен платы,
SMS и т.д.) предоставляет доступ к создаваемому пользователями каталогу ссылок на торрент-файлы, которые содержат только списки хеш-сумм.
Убедительная просьба с жалобами обращаться напрямую к пользователю, разместившему торрент файл.

Вверх