Loading...
Error

Чистилище (Александр Невзоров) [1997 г., боевик, драма, военный, DVDRip]

Статистика раздачи
Размер:  1,37 GB   |    Зарегистрирован:  4 года 5 месяцев   |    Скачан:  30 раз
Сидов:  1  |  0 KB/s  ]   Личеров:  0  |  0 KB/s  ]

* - сиды/пиры с внешних источников

   
 
Автор Сообщение

Бишеп Пол:Муж

13-Июн-2012 17:51

Чистилище


Год выпуска: 1997
Жанр: боевик, драма, военный
Страна: Россия
Режиссер: Александр Невзоров
В ролях: Виктор Степанов, Дмитрий Нагиев, Вячеслав Бурлачко, Александр Баранов, Владимир Рымига, Роман Жилкин, Ирина Веселина, Виктория Матвеева, Сергей Рост, Георгий Антонов
Сюжет фильма:
В центре сюжета этой военной драмы бои за больничный комплекс в Грозном, занятый российскими солдатами во главе с раненым полковником, потерявшим глаз. Между ним и командиром подразделения армии Ичкерии ведется диалог в эфире. Все экранное время занимают интенсивные боевые действия, снятые в полудокументальной, натуралистической манере.

  • Российская премьера: 23 марта 1998

Качество видео: DVDRip

Продолжительность: 01:54:44

Формат: avi
Видео: XviD, 720x400, 1377 kbps
Аудио: русский, дублированный (лицензия), AC3 2.0, 320 kbps

Код:

General
Complete name                    : F:\Фильмы\Чистилище.1998.DVDRip.avi
Format                           : AVI
Format/Info                      : Audio Video Interleave
File size                        : 1.37 GiB
Duration                         : 1h 54mn
Overall bit rate                 : 1 706 Kbps
Writing application              : VirtualDubMod 1.5.4.1 (build 2178/release)
Writing library                  : VirtualDubMod build 2178/release

Video
ID                               : 0
Format                           : MPEG-4 Visual
Format profile                   : Streaming Video@L1
Format settings, BVOP            : Yes
Format settings, QPel            : No
Format settings, GMC             : No warppoints
Format settings, Matrix          : Custom
Codec ID                         : XVID
Codec ID/Hint                    : XviD
Duration                         : 1h 54mn
Bit rate                         : 1 378 Kbps
Width                            : 720 pixels
Height                           : 400 pixels
Display aspect ratio             : 16/9
Frame rate                       : 29.970 fps
Resolution                       : 24 bits
Colorimetry                      : 4:2:0
Scan type                        : Progressive
Bits/(Pixel*Frame)               : 0.160
Stream size                      : 1.10 GiB (81%)
Writing library                  : XviD 1.2.0.dev47 (UTC 2006-11-01)

Audio
ID                               : 1
Format                           : AC-3
Format/Info                      : Audio Coding 3
Codec ID                         : 2000
Duration                         : 1h 54mn
Bit rate mode                    : Constant
Bit rate                         : 320 Kbps
Channel(s)                       : 2 channels
Channel positions                : L R
Sampling rate                    : 48.0 KHz
Stream size                      : 263 MiB (19%)
Alignment                        : Split accross interleaves
Interleave, duration             : 96 ms (2.88 video frames)
Interleave, preload duration     : 96 ms
Language                         : Russian

Семпл: http://multi-up.com/718276
picpicpic
Для увеличения картинки щелкните мышкой по превью

Этот торрент недоступен для скачивания без регистрации, однако доступен по публичной magnet-ссылке (источники с публичных трекеров). Перед использованием ссылки прочтите, пожалуйста Пользовательское соглашение, а также как можно дольше оставайтесь на раздаче! Для того, чтобы скачать сам торрент-файл (который видит больше источников), а также для того, чтобы поблагодарить релизера, вам необходимо зарегистрироваться. Если регистрироваться лень - вы можете также попробовать скачать релиз по нашим партнерским ссылкам ниже.

[underverse.su].t18294.torrent
Трекер: Зарегистрирован   [ 13.06.2012 17:51 ]  

Статус: проверено (by Паукан at 13.06.2012 19:35)
Поблагодарили: 1 человек
Тип торрента: публичный - доступные источники с открытых трекеров: 
Размер: 1,37 GB (занимает 0,31 DVDR, для записи нужно 1 болванка DVDR/RW)
 
 
Похожие темы
Форум Тема Автор Торрент Отв. Посл. сооб.
Зарубежное кино [DVDRip, Low-Res HDRip, и т.д.] Чистилище / Purgatorio (Пау Тейксидор) [2014 г., ужасы, триллер, DVDRip] VO + Original makkol
8 | 0

0 | 452

6

09.06.2015 15:15

Зарубежное кино [DVDRip, Low-Res HDRip, и т.д.] Чистилище / Purgatory (Пау Тейксидор) [2014 г., ужасы, триллер, DVDRip] DVO makkol
1 | 0

0 | 545

25

11.11.2015 22:36



Последний раз редактировалось: Бишеп (13.06.2012 19:29), всего редактировалось 1 раз

13-Июн-2012 18:04

Топик был перенесен из форума Наше кино HQ в форум Наше кино [DVDRip, Low-Res HDRip, и т.д.]


dj_maxx
 

lvladimir198Пол:Муж

26-Июл-2012 14:21

В свое время нашумевший фильм. Стоит смотреть.

Яндекс.Метрика powered by Sphinx


В Н И М А Н И Е
Сайт не распространяет и не хранит электронные версии произведений, а лишь бесплатно и без коммерческой выгоды (не требуя взамен платы,
SMS и т.д.) предоставляет доступ к создаваемому пользователями каталогу ссылок на торрент-файлы, которые содержат только списки хеш-сумм.
Убедительная просьба с жалобами обращаться напрямую к пользователю, разместившему торрент файл.

Вверх