Loading...
Error

Мачо и ботан / 21 Jump Street (Фил Лорд, Крис Миллер) [2012 г., боевик, комедия, криминал, HDRip] (Rus, Ukr, Eng) HQ Underverse

Статистика раздачи
Размер:  2,17 GB   |    Зарегистрирован:  5 лет 2 месяца   |    Скачан:  56 раз
Сидов:  1  |  0 KB/s  ]   Личеров:  0  |  0 KB/s  ]

* - сиды/пиры с внешних источников

   
 
Автор Сообщение

HQ Underverse 

13-Июн-2012 16:49

Мачо и ботан / 21 Jump Street


Год выпуска: 2012
Жанр: боевик, комедия, криминал
Страна: США
Режиссер: Фил Лорд, Крис Миллер
В ролях: Джона Хилл, Ченнинг Татум, Бри Ларсон, Дэйв Франко, Роб Риггл, Айс Кьюб, ДеРэй Дэвис, Дакс Флэйм, Крис Парнелл, Элли Кемпер
Сюжет фильма:
Двое новоиспеченных горе-полицейских отправляются на сверхсекретное задание. Им предстоит заново стать учениками средней школы, в которой процветает наркоторговля.

  • Мировая премьера: 12 марта 2012
  • Российская премьера: 12 апреля 2012, WDSSPR

|
Качество видео: HDRip

Продолжительность: 01:49:37

Формат: avi
Видео: XviD, 720x304, 1921 kbps
Аудио #1: русский, дублированный [лицензия], AC3 5.1, 448 kbps
Аудио #2: английский, оригинал, AC3 5.1, 448 kbps
Аудио #3: украинский, дублированный [лицензия], AC3 5.1, 448 kbps (отдельным файлом: здесь)
Субтитры #1: внешние, SRT, английский (на narod.ru)
Субтитры #2: внешние, SRT, русский (на narod.ru)
Субтитры #3: внешние, SRT, русский (форсированные) (на narod.ru)

Код:

General
Complete name                    : D:\Video\HQ-Rips\Мачо и Ботан\21.Jump.Street.2012.HDRip.XviD.AC3.Rus.D.Eng.O.HQ.Underverse.avi
Format                           : AVI
Format/Info                      : Audio Video Interleave
Format profile                   : OpenDML
File size                        : 2.17 GiB
Duration                         : 1h 49mn
Overall bit rate                 : 2 835 Kbps
Writing application              : VirtualDubMod 1.5.10.2 (build 2542/release)
Writing library                  : VirtualDubMod build 2542/release

Video
ID                               : 0
Format                           : MPEG-4 Visual
Format profile                   : Streaming Video@L1
Format settings, BVOP            : Yes
Format settings, QPel            : No
Format settings, GMC             : No warppoints
Format settings, Matrix          : Custom
Muxing mode                      : Packed bitstream
Codec ID                         : XVID
Codec ID/Hint                    : XviD
Duration                         : 1h 49mn
Bit rate                         : 1 921 Kbps
Width                            : 720 pixels
Height                           : 304 pixels
Display aspect ratio             : 2.35
Frame rate                       : 23.976 fps
Resolution                       : 24 bits
Colorimetry                      : 4:2:0
Scan type                        : Progressive
Bits/(Pixel*Frame)               : 0.366
Stream size                      : 1.47 GiB (68%)
Writing library                  : XviD 64

Audio #1
ID                               : 1
Format                           : AC-3
Format/Info                      : Audio Coding 3
Codec ID                         : 2000
Duration                         : 1h 49mn
Bit rate mode                    : Constant
Bit rate                         : 448 Kbps
Channel(s)                       : 6 channels
Channel positions                : Front: L C R, Surround: L R, LFE
Sampling rate                    : 48.0 KHz
Stream size                      : 351 MiB (16%)
Alignment                        : Split accross interleaves
Interleave, duration             : 42 ms (1.00 video frame)
Interleave, preload duration     : 500 ms

Audio #2
ID                               : 2
Format                           : AC-3
Format/Info                      : Audio Coding 3
Codec ID                         : 2000
Duration                         : 1h 49mn
Bit rate mode                    : Constant
Bit rate                         : 448 Kbps
Channel(s)                       : 6 channels
Channel positions                : Front: L C R, Surround: L R, LFE
Sampling rate                    : 48.0 KHz
Stream size                      : 351 MiB (16%)
Alignment                        : Split accross interleaves
Interleave, duration             : 42 ms (1.00 video frame)
Interleave, preload duration     : 500 ms

General
Complete name                    : D:\Video\HQ-Rips\Мачо и Ботан\21.Jump.Street.2012.HDRip.XviD.AC3.Rus.D.Eng.O.HQ.Underverse.UKR.ac3
Format                           : AC-3
Format/Info                      : Audio Coding 3
File size                        : 351 MiB
Duration                         : 1h 49mn
Overall bit rate                 : 448 Kbps

Audio
Format                           : AC-3
Format/Info                      : Audio Coding 3
Duration                         : 1h 49mn
Bit rate mode                    : Constant
Bit rate                         : 448 Kbps
Channel(s)                       : 6 channels
Channel positions                : Front: L C R, Surround: L R, LFE
Sampling rate                    : 48.0 KHz
Stream size                      : 351 MiB (100%)

Релиз группы:

pic pic pic
Для увеличения картинки щелкните мышкой по превью

Этот торрент недоступен для скачивания без регистрации, однако доступен по публичной magnet-ссылке (источники с публичных трекеров). Перед использованием ссылки прочтите, пожалуйста Пользовательское соглашение, а также как можно дольше оставайтесь на раздаче! Для того, чтобы скачать сам торрент-файл (который видит больше источников), а также для того, чтобы поблагодарить релизера, вам необходимо зарегистрироваться. Если регистрироваться лень - вы можете также попробовать скачать релиз по нашим партнерским ссылкам ниже.

[underverse.su].t18291.torrent
Трекер: Зарегистрирован   [ 13.06.2012 16:49 ]  

Статус: проверено (by Паукан at 13.06.2012 19:12)
Поблагодарили: 3 человека
Тип торрента: публичный - доступные источники с открытых трекеров: 
Размер: 2,17 GB (занимает 1/2 DVDR, для записи нужно 1 болванка DVDR/RW)
 
 
Похожие темы
Форум Тема Автор Торрент Отв. Посл. сооб.
Зарубежное кино [DVDRip, Low-Res HDRip, и т.д.] Мачо и ботан / 21 Jump Street (Фил Лорд, Крис Миллер) [2012 г., боевик, комедия, криминал, DVDRip] deny-BOY
0 | 0

0 | 951

35

30.04.2012 16:09

Зарубежное кино [DVDRip, Low-Res HDRip, и т.д.] Мачо и ботан / 21 Jump Street (Фил Лорд, Крис Миллер) [2012 г., боевик, комедия, криминал, DVDRip-AVC] H. Ledger
0 | 0

3 | 1140

94

04.06.2012 11:33

Зарубежное кино [DVDRip, Low-Res HDRip, и т.д.] Мачо и ботан / 21 Jump Street (Фил Лорд, Крис Миллер) [2012, боевик, комедия, криминал, HDRip-AVC] Dub (RUS+UKR) + Subs Garnett
17 | 0

0 | 848

16

20.12.2012 11:54

Зарубежное кино [DVDRip, Low-Res HDRip, и т.д.] Мачо и ботан 2 / 22 Jump Street (Фил Лорд, Кристофер Миллер) [2014 г., Комедия, Боевик, Криминал, BDRip] Dub (RUS, Лицензия) Ведьмочка
2 | 0

0 | 867

17

11.10.2014 16:38

Зарубежное кино [DVDRip, Low-Res HDRip, и т.д.] Мачо и ботан 2 / 22 Jump Street (Фил Лорд, Кристофер Миллер) [2014 г., Комедия, Боевик, Криминал, BDRip-AVC] Dub (RUS, Лицензия) + AVO (RUS, А. Матвеев) + Dub (UKR, Лицензия) + Original (ENG) +... Ведьмочка
0 | 0

0 | 711

9

12.10.2014 06:44

Зарубежное кино [DVDRip, Low-Res HDRip, и т.д.] Мачо и ботан 2 / 22 Jump Street (Фил Лорд, Кристофер Миллер) [2014 г., Комедия, Боевик, Криминал, BDRip] Dub (RUS, Лицензия) + Original (ENG) + Subs (RUS, ENG) Ведьмочка
1 | 0

0 | 758

5

12.10.2014 06:58

Зарубежное кино [DVDRip, Low-Res HDRip, и т.д.] Мачо и ботан 2 / 22 Jump Street (Фил Лорд, Кристофер Миллер) [2014 г., Комедия, Боевик, Криминал, BDRip-AVC] Dub (RUS, Лицензия) + Original (ENG) + Subs (RUS, ENG) Ведьмочка
1 | 0

0 | 767

11

12.10.2014 22:54

Зарубежное кино [DVDRip, Low-Res HDRip, и т.д.] Мачо и ботан 2 / 22 Jump Street (Фил Лорд, Кристофер Миллер) [2014 г., Комедия, Боевик, Криминал, BDRip-AVC] Dub (RUS, Лицензия) + Subs (RUS, ENG) Ведьмочка
0 | 0

1 | 951

30

13.10.2014 03:01

Зарубежное кино [DVDRip, Low-Res HDRip, и т.д.] Мачо и ботан 2 / 22 Jump Street (Фил Лорд / Phil Lord, Кристофер Миллер / Christopher Miller) [2014 г., боевик, комедия, криминал, BDRip] Dub 90ytr90
0 | 0

0 | 501

4

26.11.2014 19:37

Зарубежное кино HQ Мачо и ботан 2 / 22 Jump Street (Фил Лорд, Кристофер Миллер) [2014 г., комедия, боевик, криминал, BDRip] Rus HQ Underverse HQ Underverse
1 | 0

0 | 1181

17

17.10.2014 13:28


Яндекс.Метрика powered by Sphinx


В Н И М А Н И Е
Сайт не распространяет и не хранит электронные версии произведений, а лишь бесплатно и без коммерческой выгоды (не требуя взамен платы,
SMS и т.д.) предоставляет доступ к создаваемому пользователями каталогу ссылок на торрент-файлы, которые содержат только списки хеш-сумм.
Убедительная просьба с жалобами обращаться напрямую к пользователю, разместившему торрент файл.

Вверх