Loading...
Error

Москва - не Москва (Сергей Сенцов) [2011 г., мелодрама, комедия, DVDRip]

Статистика раздачи
Размер:  1,37 GB   |    Зарегистрирован:  4 года 5 месяцев   |    Скачан:  3 раза

Полного источника не было: 4 года

Сидов:  0  |  0 KB/s  ]   Личеров:  0  |  0 KB/s  ]

* - сиды/пиры с внешних источников

   
 
Автор Сообщение

RG NewCinema 

13-Июн-2012 10:52

Москва - не Москва


Год выпуска: 2011
Жанр: мелодрама, комедия
Страна: Россия
Режиссер: Сергей Сенцов
В ролях: Алексей Коряков, Софья Райзман, Александр Самойленко, Галина Данилова, Виталий Кищенко, Сергей Овчинников, Ксения Радченко, Армен Арушанян, Михаил Парыгин, Сергей Фролов
Сюжет фильма:
Милиционер Леша, приехавший в столицу из маленького провинциального города, знакомится с красавицей-студенткой Дашей. Чтобы снискать расположение девушки, он представляется ей студентом юрфака, живущим в самом центре Москвы. Отношения влюбленных набирают обороты, и теперь Леше все труднее рассказать Даше правду.

  • Релиз на DVD: 11 июня 2012, «Новый Диск»

Качество видео: DVDRip

Продолжительность: 01:28:39

Формат: avi
Видео: XviD, 720x400, 1975 kbps
Аудио: русский, оригинал, AC3 2.0, 224 kbps

Код:

General
Complete name                    : C:\Downloads\Moskva.ne.Moskva.2011.O.DVDRip.avi
Format                           : AVI
Format/Info                      : Audio Video Interleave
File size                        : 1.37 GiB
Duration                         : 1h 28mn
Overall bit rate                 : 2 210 Kbps
Movie name                       : Moskva.ne.Moskva.2011.O.DVDRip.IRONCLUB
Director                         : ironclub.tv
Genre                            : Comedy
Writing application              : VirtualDubMod 1.5.10.3 (build 2550/release)
Original source form/Name        : Movie

Video
ID                               : 0
Format                           : MPEG-4 Visual
Format profile                   : Streaming Video@L1
Format settings, BVOP            : Yes
Format settings, QPel            : No
Format settings, GMC             : No warppoints
Format settings, Matrix          : Custom
Codec ID                         : XVID
Codec ID/Hint                    : XviD
Duration                         : 1h 28mn
Bit rate                         : 1 976 Kbps
Width                            : 720 pixels
Height                           : 400 pixels
Display aspect ratio             : 16/9
Frame rate                       : 25.000 fps
Resolution                       : 24 bits
Colorimetry                      : 4:2:0
Scan type                        : Progressive
Bits/(Pixel*Frame)               : 0.274
Stream size                      : 1.22 GiB (89%)
Writing library                  : XviD 1.2.1 (UTC 2008-12-04)

Audio
ID                               : 1
Format                           : AC-3
Format/Info                      : Audio Coding 3
Codec ID                         : 2000
Duration                         : 1h 28mn
Bit rate mode                    : Constant
Bit rate                         : 224 Kbps
Channel(s)                       : 2 channels
Channel positions                : L R
Sampling rate                    : 48.0 KHz
Stream size                      : 142 MiB (10%)
Alignment                        : Split accross interleaves
Interleave, duration             : 40 ms (1.00 video frame)
Interleave, preload duration     : 500 ms

Семпл: http://sendfile.su/612690

picpicpic
Для увеличения картинки щелкните мышкой по превью

Этот торрент недоступен для скачивания без регистрации, однако доступен по публичной magnet-ссылке (источники с публичных трекеров). Перед использованием ссылки прочтите, пожалуйста Пользовательское соглашение, а также как можно дольше оставайтесь на раздаче! Для того, чтобы скачать сам торрент-файл (который видит больше источников), а также для того, чтобы поблагодарить релизера, вам необходимо зарегистрироваться. Если регистрироваться лень - вы можете также попробовать скачать релиз по нашим партнерским ссылкам ниже.

[underverse.su].t18285.torrent
Трекер: Зарегистрирован   [ 13.06.2012 10:52 ]  

Статус: проверено (by garry at 13.06.2012 11:00)
Поблагодарили: пока никто не поблагодарил...
Тип торрента: публичный - доступные источники с открытых трекеров: 
Размер: 1,37 GB (занимает 0,31 DVDR, для записи нужно 1 болванка DVDR/RW)
 
 

Яндекс.Метрика powered by Sphinx


В Н И М А Н И Е
Сайт не распространяет и не хранит электронные версии произведений, а лишь бесплатно и без коммерческой выгоды (не требуя взамен платы,
SMS и т.д.) предоставляет доступ к создаваемому пользователями каталогу ссылок на торрент-файлы, которые содержат только списки хеш-сумм.
Убедительная просьба с жалобами обращаться напрямую к пользователю, разместившему торрент файл.

Вверх