Loading...
Error

Подмена / Switch (Фредерик Шёндёрфер) [2011 г., триллер, криминал, HDRip]

Статистика раздачи
Размер:  2,05 GB   |    Зарегистрирован:  4 года 5 месяцев   |    Скачан:  9 раз

Полного источника не было: 4 года 4 месяца

Сидов:  0  |  0 KB/s  ]   Личеров:  0  |  0 KB/s  ]

* - сиды/пиры с внешних источников

   
 
Автор Сообщение

RG NewCinema 

11-Июн-2012 16:54

Подмена / Switch


Год выпуска: 2011
Жанр: триллер, криминал
Страна: Франция
Режиссер: Фредерик Шёндёрфер
В ролях: Карин Ванасс, Эрик Кантона, Мехди Неббу, Орельен Рекуан, Карина Теста, Бруно Тодескини, Максим Рой, Нисеема, Софи Фочер, Стефан Гуэрин-Тилли
Сюжет фильма:
Не имея никаких планов, 25-летняя дизайнер моды из Канады Софи с тоской смотрит на приближающийся летний отпуск. Попавшийся ей на глаза сайт в интернете предлагает обмен домами, и взамен своего дома она на месяц получает апартаменты с видом на Эйфелеву башню в Париже.

Первый день на новом месте был полной идиллией, но на утро она пробуждается от вторжения полиции. В соседней комнате находят обезглавленное тело, а сама Софи оказывается не способной доказать полиции, что она не владелица квартиры Бенедикт Серто. Ловушка перед ней быстро захлопывается.

  • Мировая премьера: 6 июля 2011

/
Качество видео: HDRip

Продолжительность: 01:43:41

Формат: avi
Видео: XviD, 720x400, 1918 kbps
Аудио #1: русский, многоголосый закадровый [любительский, keyaltos и ИринаЮС], AC3 5.1, 448 kbps
Аудио #2: французский, оригинал, AC3 5.1, 448 kbps

Код:

General
Complete name                    : C:\Share\Подмена\Podmena.2011.L2.HDRip.avi\Podmena.2011.L2.HDRip.avi
Format                           : AVI
Format/Info                      : Audio Video Interleave
Format profile                   : OpenDML
File size                        : 2.05 GiB
Duration                         : 1h 43mn
Overall bit rate                 : 2 833 Kbps
Writing application              : VirtualDubMod 1.5.10.2 (build 2540/release)

Video
ID                               : 0
Format                           : MPEG-4 Visual
Format profile                   : Streaming Video@L1
Format settings, BVOP            : Yes
Format settings, QPel            : No
Format settings, GMC             : No warppoints
Format settings, Matrix          : Custom
Muxing mode                      : Packed bitstream
Codec ID                         : XVID
Codec ID/Hint                    : XviD
Duration                         : 1h 43mn
Bit rate                         : 1 919 Kbps
Width                            : 720 pixels
Height                           : 400 pixels
Display aspect ratio             : 16/9
Frame rate                       : 23.976 fps
Resolution                       : 24 bits
Colorimetry                      : 4:2:0
Scan type                        : Progressive
Bits/(Pixel*Frame)               : 0.278
Stream size                      : 1.39 GiB (68%)
Writing library                  : XviD 1.2.1 (UTC 2008-12-04)

Audio #1
ID                               : 1
Format                           : AC-3
Format/Info                      : Audio Coding 3
Codec ID                         : 2000
Duration                         : 1h 43mn
Bit rate mode                    : Constant
Bit rate                         : 448 Kbps
Channel(s)                       : 6 channels
Channel positions                : Front: L C R, Surround: L R, LFE
Sampling rate                    : 48.0 KHz
Stream size                      : 332 MiB (16%)
Alignment                        : Split accross interleaves
Interleave, duration             : 42 ms (1.00 video frame)
Interleave, preload duration     : 500 ms

Audio #2
ID                               : 2
Format                           : AC-3
Format/Info                      : Audio Coding 3
Codec ID                         : 2000
Duration                         : 1h 43mn
Bit rate mode                    : Constant
Bit rate                         : 448 Kbps
Channel(s)                       : 6 channels
Channel positions                : Front: L C R, Surround: L R, LFE
Sampling rate                    : 48.0 KHz
Stream size                      : 332 MiB (16%)
Alignment                        : Split accross interleaves
Interleave, duration             : 42 ms (1.00 video frame)
Interleave, preload duration     : 500 ms

Семпл: http://multi-up.com/716943/
picpicpic
Для увеличения картинки щелкните мышкой по превью

Этот торрент недоступен для скачивания без регистрации, однако доступен по публичной magnet-ссылке (источники с публичных трекеров). Перед использованием ссылки прочтите, пожалуйста Пользовательское соглашение, а также как можно дольше оставайтесь на раздаче! Для того, чтобы скачать сам торрент-файл (который видит больше источников), а также для того, чтобы поблагодарить релизера, вам необходимо зарегистрироваться. Если регистрироваться лень - вы можете также попробовать скачать релиз по нашим партнерским ссылкам ниже.

[underverse.su].t18250.torrent
Трекер: Зарегистрирован   [ 11.06.2012 16:54 ]  

Статус: проверено (by garry at 11.06.2012 17:08)
Поблагодарили: пока никто не поблагодарил...
Тип торрента: публичный - доступные источники с открытых трекеров: 
Размер: 2,05 GB (занимает 0,47 DVDR, для записи нужно 1 болванка DVDR/RW)
 
 
Похожие темы
Форум Тема Автор Торрент Отв. Посл. сооб.
Зарубежное кино [DVDRip, Low-Res HDRip, и т.д.] Подмена / Switch (Фредерик Шёндёрфер) [2011 г., триллер, криминал, HDRip] [Xixidok] RG NewCinema
0 | 0

0 | 554

14

06.06.2012 00:26

Зарубежное кино [DVDRip, Low-Res HDRip, и т.д.] Подмена / Switch (Фредерик Шёндёрфер) [2011 г., триллер, криминал, HDRip] MVO [НТВ+] Паукан
4 | 1

0 | 806

30

12.07.2013 09:29

Зарубежное кино [DVDRip, Low-Res HDRip, и т.д.] Подмена / Changeling (Клинт Иствуд / Clint Eastwood) [2008 г., драма, детектив, HDRip] Dub 90ytr90
90 | 1

0 | 1960

35

17.12.2013 18:09

Зарубежное кино [DVDRip, Low-Res HDRip, и т.д.] Подмена / Changeling (Клинт Иствуд / Clint Eastwood) [2008 г., драма, детектив, BDRip] Dub 90ytr90
10 | 0

0 | 621

1

23.05.2016 16:33

Зарубежное кино [DVDRip, Low-Res HDRip, и т.д.] Подмена / Changeling (Клинт Иствуд / Clint Eastwood) [2008 г., драма, детектив, BDRip] Dub + Original (Eng) 90ytr90
8 | 0

0 | 788

1

23.05.2016 16:44

Зарубежное кино [HDDVDRip / BDRip / WEB-DL / HDTV 1080/720р] Подмена / Changeling (Клинт Иствуд / Clint Eastwood) [2008 г., драма, детектив, BDRip1080p] Dub + Original (Eng) + Sub (Rus, Eng) 90ytr90
19 | 0

0 | 788

5

23.05.2016 17:04

Архив Подмена / Changeling (Клинт Иствуд) [2008 г., драма, детектив, история, BDRip] Паукан
0 | 0

3 | 1103

3

17.02.2011 14:46


Яндекс.Метрика powered by Sphinx


В Н И М А Н И Е
Сайт не распространяет и не хранит электронные версии произведений, а лишь бесплатно и без коммерческой выгоды (не требуя взамен платы,
SMS и т.д.) предоставляет доступ к создаваемому пользователями каталогу ссылок на торрент-файлы, которые содержат только списки хеш-сумм.
Убедительная просьба с жалобами обращаться напрямую к пользователю, разместившему торрент файл.

Вверх