Loading...
Error

Кассадага / Cassadaga (Энтони ДиБлейси) [2011 г., ужасы, триллер, HDRip]

Статистика раздачи
Размер:  1,37 GB   |    Зарегистрирован:  4 года 5 месяцев   |    Скачан:  12 раз

Полного источника не было: 26 дней

Сидов:  0  |  0 KB/s  ]   Личеров:  0  |  0 KB/s  ]

* - сиды/пиры с внешних источников

   
 
Автор Сообщение

RG NewCinema 

11-Июн-2012 16:13

Кассадага / Cassadaga


Год выпуска: 2011
Жанр: ужасы, триллер
Страна: США
Режиссер: Энтони ДиБлейси
В ролях: Келен Коулмэн, Кевин Алехандро, Луиза Флетчер, Рас Блэквелл, Лукас Бек, Люсиус Бастон мл., Эми ЛоЦицеро, Sarah Sculco, Rachel Durose, Авис-Мари Барнс
Сюжет фильма:
Кассадага название городка во Флориде, население которого составляет чуть больше 200 человек. Говорят, его населяют люди с паранормальными способностями, которым платят большие деньги за сеансы всегда стремящиеся попасть туда туристы. Фильм рассказывает о том, что не стоит вызывать души своих умерших сестер, как бы по ним не скучали родственники, потому что призраки не любят, когда их тревожат.

  • Мировая премьера: 22 октября 2011
  • Российская премьера: 31 мая 2012, Кинопром

/
Качество видео: HDRip

Продолжительность: 01:48:04

Формат: avi
Видео: XviD, 720x304, 1581 kbps
Аудио: русский, дублированный (чистый звук), AC3 2.0, 224 kbps

Код:

General
Complete name                    : C:\Share\Кассадага\Kassadaga.2011.D.HDRip.1400MB.avi
Format                           : AVI
Format/Info                      : Audio Video Interleave
File size                        : 1.37 GiB
Duration                         : 1h 48mn
Overall bit rate                 : 1 816 Kbps
Writing application              : VirtualDubMod 1.5.10.3 | www.virtualdub-fr.org || (build 2550/release)
Writing library                  : VirtualDubMod build 2550/release

Video
ID                               : 0
Format                           : MPEG-4 Visual
Format profile                   : Streaming Video@L1
Format settings, BVOP            : Yes
Format settings, QPel            : No
Format settings, GMC             : No warppoints
Format settings, Matrix          : Custom
Muxing mode                      : Packed bitstream
Codec ID                         : XVID
Codec ID/Hint                    : XviD
Duration                         : 1h 48mn
Bit rate                         : 1 582 Kbps
Width                            : 720 pixels
Height                           : 304 pixels
Display aspect ratio             : 2.35
Frame rate                       : 25.000 fps
Resolution                       : 24 bits
Colorimetry                      : 4:2:0
Scan type                        : Progressive
Bits/(Pixel*Frame)               : 0.289
Stream size                      : 1.19 GiB (87%)
Writing library                  : XviD 58

Audio
ID                               : 1
Format                           : AC-3
Format/Info                      : Audio Coding 3
Codec ID                         : 2000
Duration                         : 1h 48mn
Bit rate mode                    : Constant
Bit rate                         : 224 Kbps
Channel(s)                       : 2 channels
Channel positions                : L R
Sampling rate                    : 48.0 KHz
Stream size                      : 173 MiB (12%)
Alignment                        : Split accross interleaves
Interleave, duration             : 40 ms (1.00 video frame)
Interleave, preload duration     : 500 ms

Семпл: http://multi-up.com/711878
picpicpic
Для увеличения картинки щелкните мышкой по превью

Этот торрент недоступен для скачивания без регистрации, однако доступен по публичной magnet-ссылке (источники с публичных трекеров). Перед использованием ссылки прочтите, пожалуйста Пользовательское соглашение, а также как можно дольше оставайтесь на раздаче! Для того, чтобы скачать сам торрент-файл (который видит больше источников), а также для того, чтобы поблагодарить релизера, вам необходимо зарегистрироваться. Если регистрироваться лень - вы можете также попробовать скачать релиз по нашим партнерским ссылкам ниже.

[underverse.su].t18249.torrent
Трекер: Зарегистрирован   [ 11.06.2012 16:13 ]  

Статус: проверено (by garry at 11.06.2012 16:15)
Поблагодарили: пока никто не поблагодарил...
Тип торрента: публичный - доступные источники с открытых трекеров: 
Размер: 1,37 GB (занимает 0,31 DVDR, для записи нужно 1 болванка DVDR/RW)
 
 
Похожие темы
Форум Тема Автор Торрент Отв. Посл. сооб.
Зарубежное кино [DVDRip, Low-Res HDRip, и т.д.] Кассадага / Cassadaga (Энтони ДиБлейси) [2011 г., ужасы, триллер, DVDRip] 90ytr90
4 | 0

2 | 524

20

30.04.2012 11:48


Яндекс.Метрика powered by Sphinx


В Н И М А Н И Е
Сайт не распространяет и не хранит электронные версии произведений, а лишь бесплатно и без коммерческой выгоды (не требуя взамен платы,
SMS и т.д.) предоставляет доступ к создаваемому пользователями каталогу ссылок на торрент-файлы, которые содержат только списки хеш-сумм.
Убедительная просьба с жалобами обращаться напрямую к пользователю, разместившему торрент файл.

Вверх