Loading...
Error

Тёмная сторона / La cara oculta (Андрес Баиз) [2011 г., триллер, HDRip]

Статистика раздачи
Размер:  1,45 GB   |    Зарегистрирован:  4 года 5 месяцев   |    Скачан:  15 раз

Полного источника не было: 4 месяца 30 дней

Сидов:  0  |  0 KB/s  ]   Личеров:  0  |  0 KB/s  ]

* - сиды/пиры с внешних источников

   
 
Автор Сообщение

RG NewCinema 

11-Июн-2012 12:00

Тёмная сторона / La cara oculta


Год выпуска: 2011
Жанр: триллер
Страна: Испания
Режиссер: Андрес Баиз
В ролях: Мартина Гарсия, Куим Гутьеррес, Клара Лаго
Сюжет фильма:
Официантка Фабиана знакомится с одним из случайных посетителей, переживающим сложный период в жизни. Между ними вспыхивает страсть. Для девушки все кажется идеальным: ее любимый работает дирижером оркестра филармонии в Боготе и владеет огромным особняком. Однако вскоре появляются непредвиденные сложности. Полиция расследует таинственное исчезновения бывшей невесты и подруги дирижера, а сама девушка начинает чувствовать, что в доме происходит нечто странное.

  • Мировая премьера: 16 сентября 2011

/
Качество видео: HDRip

Продолжительность: 01:36:31

Формат: avi
Видео: XviD, 720x304, 1697 kbps
Аудио: русский, двухголосый закадровый [den904 & DeadSno], AC3 5.1, 448 kbps

Код:

General
Complete name                    : C:\Downloads\Temnaja.storona.2011.L2.HDRip.avi
Format                           : AVI
Format/Info                      : Audio Video Interleave
File size                        : 1.45 GiB
Duration                         : 1h 36mn
Overall bit rate                 : 2 155 Kbps
Writing application              : VirtualDubMod 1.5.10.2 (build 2540/release)

Video
ID                               : 0
Format                           : MPEG-4 Visual
Format profile                   : Streaming Video@L1
Format settings, BVOP            : Yes
Format settings, QPel            : No
Format settings, GMC             : No warppoints
Format settings, Matrix          : Custom
Muxing mode                      : Packed bitstream
Codec ID                         : XVID
Codec ID/Hint                    : XviD
Duration                         : 1h 36mn
Bit rate                         : 1 698 Kbps
Width                            : 720 pixels
Height                           : 304 pixels
Display aspect ratio             : 2.35
Frame rate                       : 24.000 fps
Resolution                       : 24 bits
Colorimetry                      : 4:2:0
Scan type                        : Progressive
Bits/(Pixel*Frame)               : 0.323
Stream size                      : 1.14 GiB (79%)
Writing library                  : XviD 1.2.1 (UTC 2008-12-04)

Audio
ID                               : 1
Format                           : AC-3
Format/Info                      : Audio Coding 3
Codec ID                         : 2000
Duration                         : 1h 36mn
Bit rate mode                    : Constant
Bit rate                         : 448 Kbps
Channel(s)                       : 6 channels
Channel positions                : Front: L C R, Surround: L R, LFE
Sampling rate                    : 48.0 KHz
Stream size                      : 309 MiB (21%)
Alignment                        : Split accross interleaves
Interleave, duration             : 42 ms (1.00 video frame)
Interleave, preload duration     : 500 ms

picpicpic
Для увеличения картинки щелкните мышкой по превью

Этот торрент недоступен для скачивания без регистрации, однако доступен по публичной magnet-ссылке (источники с публичных трекеров). Перед использованием ссылки прочтите, пожалуйста Пользовательское соглашение, а также как можно дольше оставайтесь на раздаче! Для того, чтобы скачать сам торрент-файл (который видит больше источников), а также для того, чтобы поблагодарить релизера, вам необходимо зарегистрироваться. Если регистрироваться лень - вы можете также попробовать скачать релиз по нашим партнерским ссылкам ниже.

[underverse.su].t18244.torrent
Трекер: Зарегистрирован   [ 11.06.2012 12:00 ]  

Статус: проверено (by garry at 11.06.2012 12:08)
Поблагодарили: пока никто не поблагодарил...
Тип торрента: публичный - доступные источники с открытых трекеров: 
Размер: 1,45 GB (занимает 1/3 DVDR, для записи нужно 1 болванка DVDR/RW)
 
 
Похожие темы
Форум Тема Автор Торрент Отв. Посл. сооб.
Зарубежное кино [DVDRip, Low-Res HDRip, и т.д.] Темная сторона / Shockwave Darkside (Джей Уайзман) [2014 г., фантастика, боевик, WEB-DLRip] DVO makkol
6 | 0

0 | 383

21

24.01.2016 14:40

Зарубежное кино [DVDRip, Low-Res HDRip, и т.д.] Тёмная сторона Луны / Die dunkle Seite des Mondes (Штефан Рик) [2015 г., триллер, WEB-DLRip] MVO makkol
136 | 1

0 | 482

14

03.07.2016 22:07

Зарубежное кино [DVDRip, Low-Res HDRip, и т.д.] Тёмная сторона Луны / Die dunkle Seite des Mondes (Штефан Рик / Stephan Rick) [2015 г., триллер, BDRip] AVO (Живов) + MVO (ViruseProject) 90ytr90
43 | 2

0 | 276

7

09.08.2016 15:50

Зарубежное кино [HDDVDRip / BDRip / WEB-DL / HDTV 1080/720р] Тёмная сторона Луны / Die dunkle Seite des Mondes (Штефан Рик) [2015 г., триллер, WEB-DL 720p] MVO makkol
79 | 1

0 | 422

14

03.07.2016 22:14

xUSSR сериалы [BD / Remux / BDRip / WEB-DL / HDTV 1080/720р] Тёмная сторона души / Серии: 1-4 из 4 (Вячеслав Лавров) [ 2015 г., детектив, WEB-DL 1080p] nemos
1 | 0

0 | 742

22

04.04.2015 18:00


Яндекс.Метрика powered by Sphinx


В Н И М А Н И Е
Сайт не распространяет и не хранит электронные версии произведений, а лишь бесплатно и без коммерческой выгоды (не требуя взамен платы,
SMS и т.д.) предоставляет доступ к создаваемому пользователями каталогу ссылок на торрент-файлы, которые содержат только списки хеш-сумм.
Убедительная просьба с жалобами обращаться напрямую к пользователю, разместившему торрент файл.

Вверх