Loading...
Error

Инопланетная буря / Alien Tornado (Джефф Барр) [2012 г., фантастика, боевик, триллер, HDTVRip]

Статистика раздачи
Размер:  1,37 GB   |    Зарегистрирован:  4 года 5 месяцев   |    Скачан:  39 раз

Полного источника не было: 3 года

Сидов:  0  |  0 KB/s  ]   Личеров:  0  |  0 KB/s  ]

* - сиды/пиры с внешних источников

   
 
Автор Сообщение

RG NewCinema 

11-Июн-2012 11:29

Инопланетная буря / Alien Tornado


Год выпуска: 2012
Жанр: фантастика, боевик, триллер
Страна: США
Режиссер: Джефф Барр
В ролях: Стейси Асаро, Джефф Фэйи, Эмили Д. Хейли, Дэвид Дженсен, Майк Киммел, Терри Кайзер, Daniel Ponsky, Уиллард Э. Паг, Глен Уорнер
Сюжет фильма:
Инопланетяне атакуют Землю, используя смертельный электрический торнадо в качестве оружия. Главному герою и его дочери, необходимо найти способ как спасти планету от уничтожения.

  • Мировая премьера: 21 апреля 2012

|
Качество видео: HDTVRip

Продолжительность: 01:24:58

Формат: avi
Видео: XviD, 704x400, 1717 kbps
Аудио #1: русский, многоголосый закадровый [профессиональный], AC3 2.0, 192 kbps
Аудио #2: английский, оригинал, AC3 5.1, 384 kbps

Код:

General
Complete name                    : C:\Downloads\Alien.Tornado.2012.P.HDTVRip.avi
Format                           : AVI
Format/Info                      : Audio Video Interleave
File size                        : 1.37 GiB
Duration                         : 1h 24mn
Overall bit rate                 : 2 308 Kbps
Writing application              : VirtualDubModRus 1.5.10.1 (build 2439/release)

Video
ID                               : 0
Format                           : MPEG-4 Visual
Format profile                   : Streaming Video@L1
Format settings, BVOP            : Yes
Format settings, QPel            : No
Format settings, GMC             : No warppoints
Format settings, Matrix          : Default (H.263)
Muxing mode                      : Packed bitstream
Codec ID                         : XVID
Codec ID/Hint                    : XviD
Duration                         : 1h 24mn
Bit rate                         : 1 718 Kbps
Width                            : 704 pixels
Height                           : 400 pixels
Display aspect ratio             : 16/9
Frame rate                       : 23.976 fps
Resolution                       : 24 bits
Colorimetry                      : 4:2:0
Scan type                        : Progressive
Bits/(Pixel*Frame)               : 0.254
Stream size                      : 1.02 GiB (74%)
Writing library                  : XviD 1.2.1 (UTC 2008-12-04)

Audio #1
ID                               : 1
Format                           : AC-3
Format/Info                      : Audio Coding 3
Codec ID                         : 2000
Duration                         : 1h 24mn
Bit rate mode                    : Constant
Bit rate                         : 192 Kbps
Channel(s)                       : 2 channels
Channel positions                : L R
Sampling rate                    : 48.0 KHz
Stream size                      : 117 MiB (8%)
Alignment                        : Split accross interleaves
Interleave, duration             : 42 ms (1.00 video frame)
Interleave, preload duration     : 500 ms

Audio #2
ID                               : 2
Format                           : AC-3
Format/Info                      : Audio Coding 3
Codec ID                         : 2000
Duration                         : 1h 24mn
Bit rate mode                    : Constant
Bit rate                         : 384 Kbps
Channel(s)                       : 6 channels
Channel positions                : Front: L C R, Surround: L R, LFE
Sampling rate                    : 48.0 KHz
Stream size                      : 233 MiB (17%)
Alignment                        : Split accross interleaves
Interleave, duration             : 42 ms (1.00 video frame)
Interleave, preload duration     : 500 ms

Семпл: http://multi-up.com/716773
picpicpic
Для увеличения картинки щелкните мышкой по превью

Этот торрент недоступен для скачивания без регистрации, однако доступен по публичной magnet-ссылке (источники с публичных трекеров). Перед использованием ссылки прочтите, пожалуйста Пользовательское соглашение, а также как можно дольше оставайтесь на раздаче! Для того, чтобы скачать сам торрент-файл (который видит больше источников), а также для того, чтобы поблагодарить релизера, вам необходимо зарегистрироваться. Если регистрироваться лень - вы можете также попробовать скачать релиз по нашим партнерским ссылкам ниже.

[underverse.su].t18242.torrent
Трекер: Зарегистрирован   [ 11.06.2012 11:29 ]  

Статус: проверено (by garry at 11.06.2012 11:46)
Поблагодарили: 2 человека
Тип торрента: публичный - доступные источники с открытых трекеров: 
Размер: 1,37 GB (занимает 0,31 DVDR, для записи нужно 1 болванка DVDR/RW)
 
 
Похожие темы
Форум Тема Автор Торрент Отв. Посл. сооб.
Зарубежное кино [DVDRip, Low-Res HDRip, и т.д.] Инопланетное вторжение: Битва за Лос-Анджелес / Battle: Los Angeles (Джонатан Либесман ) [2011 г., фантастика, боевик, триллер , DVDRip] P.O.C.O.X.A
0 | 1

1 | 770

42

21.09.2011 06:05

Зарубежное кино [DVDRip, Low-Res HDRip, и т.д.] Инопланетное вторжение: Битва за Лос-Анджелес / Battle: Los Angeles (Джонатан Либесман ) [2011 г., фантастика, боевик, триллер , DVDRip-AVC ] P.O.C.O.X.A
0 | 0

4 | 1292

16

08.04.2011 21:10

Зарубежное кино [DVDRip, Low-Res HDRip, и т.д.] Инопланетная раса / Чужой вид / Alien Strain (Роберт Бенавидес мл. / Robert Benavides Jr., Энди Палмер / Andy Palmer,) [2014 г., ужасы, фантастика, триллер, DVDRip] VO (Хихидок) + Original (Eng) 90ytr90
14 | 1

0 | 536

14

11.07.2016 19:31

Action [FPS/TPS] Инопланетное вторжение: Битва за Лос-Анджелес / Battle: Los Angeles The Videogame (1С-СофтКлаб) (RUS) [L] _Dante_
0 | 0

6 | 1107

21

18.06.2011 17:26

Action [FPS/TPS] Инопланетное вторжение: Битва за Лос-Анджелес / Battle: Los Angeles (2011 г., Action / Shooter) [R] (RUS) ZaserOn
0 | 0

5 | 1313

77

22.09.2012 17:41

astratek 

13-Июн-2012 16:31

да рейтинг слабоват

Яндекс.Метрика powered by Sphinx


В Н И М А Н И Е
Сайт не распространяет и не хранит электронные версии произведений, а лишь бесплатно и без коммерческой выгоды (не требуя взамен платы,
SMS и т.д.) предоставляет доступ к создаваемому пользователями каталогу ссылок на торрент-файлы, которые содержат только списки хеш-сумм.
Убедительная просьба с жалобами обращаться напрямую к пользователю, разместившему торрент файл.

Вверх