Loading...
Error

Закон доблести / Act of Valor (Майк МакКой, Скотт Во) [2012 г., боевик, триллер, приключения, военный, HDRip] (Rus, Eng) HQ Underverse

Статистика раздачи
Размер:  2,17 GB   |    Зарегистрирован:  4 года 5 месяцев   |    Скачан:  36 раз

Полного источника не было: 16 дней

Сидов:  0  |  0 KB/s  ]   Личеров:  0  |  0 KB/s  ]

* - сиды/пиры с внешних источников

   
 
Автор Сообщение

HQ Underverse 

11-Июн-2012 08:08

Закон доблести / Act of Valor


Год выпуска: 2012
Жанр: боевик, триллер, приключения, военный
Страна: США
Режиссер: Майк МакКой, Скотт Во
В ролях: Джейсон Коттл, Нестор Серрано, Айлса Маршалл, Гонсало Менендес, Эмилио Ривера, Димитар Маринов, Томас Розалес мл., Марк Маргулис, Дэн Сауфуорф, Андреа Кастро
Сюжет фильма:
История о нелегких буднях элитной группы морские котики, которым поручено вытащить из плена агентов ЦРУ. Выполняя задание, бойцы попутно уничтожают террористическую группу, в планы которой входила масштабная атака на США.

  • Мировая премьера: 7 февраля 2012
  • Российская премьера: 12 апреля 2012, Парадиз

/
Качество видео: HDRip

Продолжительность: 01:50:16

Формат: avi
Видео: XviD, 720x304, 2037 kbps
Аудио #1: русский, дублированный [лицензия], AC3 5.1, 384 kbps
Аудио #2: английский, оригинал, AC3 5.1, 384 kbps
Субтитры #1: внешние, SRT, английский (на narod.ru)
Субтитры #2: внешние, SRT, русский (на narod.ru)

Код:

General
Complete name                    : D:\Video\HQ-Rips\Закон доблести\Act.Of.Valor.2012.HDRip.XviD.AC3.Rus.D.Eng.O.HQ.Underverse.avi
Format                           : AVI
Format/Info                      : Audio Video Interleave
Format profile                   : OpenDML
File size                        : 2.17 GiB
Duration                         : 1h 50mn
Overall bit rate                 : 2 823 Kbps
Writing application              : VirtualDubMod 1.5.10.2 (build 2542/release)
Writing library                  : VirtualDubMod build 2542/release

Video
ID                               : 0
Format                           : MPEG-4 Visual
Format profile                   : Streaming Video@L1
Format settings, BVOP            : Yes
Format settings, QPel            : No
Format settings, GMC             : No warppoints
Format settings, Matrix          : Custom
Muxing mode                      : Packed bitstream
Codec ID                         : XVID
Codec ID/Hint                    : XviD
Duration                         : 1h 50mn
Bit rate                         : 2 038 Kbps
Width                            : 720 pixels
Height                           : 304 pixels
Display aspect ratio             : 2.35
Frame rate                       : 23.976 fps
Resolution                       : 24 bits
Colorimetry                      : 4:2:0
Scan type                        : Progressive
Bits/(Pixel*Frame)               : 0.388
Stream size                      : 1.57 GiB (72%)
Writing library                  : XviD 64

Audio #1
ID                               : 1
Format                           : AC-3
Format/Info                      : Audio Coding 3
Codec ID                         : 2000
Duration                         : 1h 50mn
Bit rate mode                    : Constant
Bit rate                         : 384 Kbps
Channel(s)                       : 6 channels
Channel positions                : Front: L C R, Surround: L R, LFE
Sampling rate                    : 48.0 KHz
Stream size                      : 303 MiB (14%)
Alignment                        : Split accross interleaves
Interleave, duration             : 42 ms (1.00 video frame)
Interleave, preload duration     : 500 ms

Audio #2
ID                               : 2
Format                           : AC-3
Format/Info                      : Audio Coding 3
Codec ID                         : 2000
Duration                         : 1h 50mn
Bit rate mode                    : Constant
Bit rate                         : 384 Kbps
Channel(s)                       : 6 channels
Channel positions                : Front: L C R, Surround: L R, LFE
Sampling rate                    : 48.0 KHz
Stream size                      : 303 MiB (14%)
Alignment                        : Split accross interleaves
Interleave, duration             : 42 ms (1.00 video frame)
Interleave, preload duration     : 500 ms

Релиз группы:
picpicpic
Для увеличения картинки щелкните мышкой по превью

Этот торрент недоступен для скачивания без регистрации, однако доступен по публичной magnet-ссылке (источники с публичных трекеров). Перед использованием ссылки прочтите, пожалуйста Пользовательское соглашение, а также как можно дольше оставайтесь на раздаче! Для того, чтобы скачать сам торрент-файл (который видит больше источников), а также для того, чтобы поблагодарить релизера, вам необходимо зарегистрироваться. Если регистрироваться лень - вы можете также попробовать скачать релиз по нашим партнерским ссылкам ниже.

[underverse.su].t18237.torrent
Трекер: Зарегистрирован   [ 11.06.2012 08:08 ]  

Статус: проверено (by Паукан at 11.06.2012 08:09)
Поблагодарили: 1 человек
Тип торрента: публичный - доступные источники с открытых трекеров: 
Размер: 2,17 GB (занимает 1/2 DVDR, для записи нужно 1 болванка DVDR/RW)
 
 
Похожие темы
Форум Тема Автор Торрент Отв. Посл. сооб.
Зарубежное кино [DVDRip, Low-Res HDRip, и т.д.] Закон доблести / Act of Valor (Майк МакКой, Скотт Во) [2012 г., боевик, триллер, приключения, военный, HDRip] RG NewCinema
0 | 0

0 | 343

6

09.06.2012 05:33

Зарубежное кино [DVDRip, Low-Res HDRip, и т.д.] Закон доблести / Act of Valor (Майк МакКой, Скотт Во ) [2012 г., боевик, триллер, приключения, военный, BDRip-AVC] Dub + Original Чертёнок
4 | 0

1 | 800

18

05.04.2013 19:08

Zeratul1 Пол:Жен

24-Дек-2012 18:30

Хех, а путь этих котиков случаем не шёл через Ирак, Ливию, Египет?
Эту ересь пускай соседский Бобик смотрит.

Яндекс.Метрика powered by Sphinx


В Н И М А Н И Е
Сайт не распространяет и не хранит электронные версии произведений, а лишь бесплатно и без коммерческой выгоды (не требуя взамен платы,
SMS и т.д.) предоставляет доступ к создаваемому пользователями каталогу ссылок на торрент-файлы, которые содержат только списки хеш-сумм.
Убедительная просьба с жалобами обращаться напрямую к пользователю, разместившему торрент файл.

Вверх