Loading...
Error

Игра / Play (Рубен Остлунд) [2011 г., драма, криминал, DVDRip]

Статистика раздачи
Размер:  1,46 GB   |    Зарегистрирован:  4 года 5 месяцев   |    Скачан:  6 раз

Полного источника не было: 3 года 3 месяца

Сидов:  0  |  0 KB/s  ]   Личеров:  1  |  0 KB/s  ]

* - сиды/пиры с внешних источников

   
 
Автор Сообщение

RG NewCinema 

10-Июн-2012 15:22

Игра / Play


Год выпуска: 2011
Жанр: драма, криминал
Страна: Дания , Швеция , Финляндия
Режиссер: Рубен Остлунд
В ролях: Кевин Ваз, Янник Диаките, Джон Ортиз, Анас Абдирахман, Себастьян Бликерт, Себастьян Хегмар, Нана Маню
Сюжет фильма:
Наблюдение, основанное на реальных случаях травли подростками друг друга. В центре Гетеборга группа мальчишек от 12 до 14 лет с 2006 по 2008 год совершила около 40 ограблений других детей. Для этого ворами применялась тщательно продуманная схема под названием трюк с братом, основанная скорее на продвинутой ролевой игре и бандитских понятиях, нежели на физическом насилии.

  • Мировая премьера: 15 мая 2011
  • Российская премьера: 12 апреля 2012, Кино без границ

/
Качество видео: DVDRip

Продолжительность: 01:53:16

Формат: avi
Видео: XviD, 640x352, 1576 kbps
Аудио: русский, многоголосый закадровый [профессиональный], AC3 2.0, 256 kbps

Код:

General
Complete name                    : C:\Downloads\Igra.2011.P.DVDRip.avi
Format                           : AVI
Format/Info                      : Audio Video Interleave
File size                        : 1.46 GiB
Duration                         : 1h 53mn
Overall bit rate                 : 1 842 Kbps
Writing application              : V

Video
ID                               : 0
Format                           : MPEG-4 Visual
Format profile                   : Streaming Video@L1
Format settings, BVOP            : Yes
Format settings, QPel            : No
Format settings, GMC             : No warppoints
Format settings, Matrix          : Default (H.263)
Codec ID                         : XVID
Codec ID/Hint                    : XviD
Duration                         : 1h 53mn
Bit rate                         : 1 577 Kbps
Width                            : 640 pixels
Height                           : 352 pixels
Display aspect ratio             : 16/9
Frame rate                       : 25.000 fps
Resolution                       : 24 bits
Colorimetry                      : 4:2:0
Scan type                        : Progressive
Bits/(Pixel*Frame)               : 0.280
Stream size                      : 1.25 GiB (86%)
Writing library                  : XviD 64

Audio
ID                               : 1
Format                           : AC-3
Format/Info                      : Audio Coding 3
Codec ID                         : 2000
Duration                         : 1h 53mn
Bit rate mode                    : Constant
Bit rate                         : 256 Kbps
Channel(s)                       : 2 channels
Channel positions                : L R
Sampling rate                    : 48.0 KHz
Stream size                      : 207 MiB (14%)
Alignment                        : Split accross interleaves
Interleave, duration             : 40 ms (1.00 video frame)
Interleave, preload duration     : 500 ms

Семпл: http://multi-up.com/716295
picpicpic
Для увеличения картинки щелкните мышкой по превью

Этот торрент недоступен для скачивания без регистрации, однако доступен по публичной magnet-ссылке (источники с публичных трекеров). Перед использованием ссылки прочтите, пожалуйста Пользовательское соглашение, а также как можно дольше оставайтесь на раздаче! Для того, чтобы скачать сам торрент-файл (который видит больше источников), а также для того, чтобы поблагодарить релизера, вам необходимо зарегистрироваться. Если регистрироваться лень - вы можете также попробовать скачать релиз по нашим партнерским ссылкам ниже.

[underverse.su].t18218.torrent
Трекер: Зарегистрирован   [ 10.06.2012 15:22 ]  

Статус: проверено (by garry at 10.06.2012 15:25)
Поблагодарили: пока никто не поблагодарил...
Тип торрента: публичный - доступные источники с открытых трекеров: 
Размер: 1,46 GB (занимает 1/3 DVDR, для записи нужно 1 болванка DVDR/RW)
 
 

GeoWizard 

20-Окт-2013 16:28

Автор, выйди в раздающие, пожалуйста!

Яндекс.Метрика powered by Sphinx


В Н И М А Н И Е
Сайт не распространяет и не хранит электронные версии произведений, а лишь бесплатно и без коммерческой выгоды (не требуя взамен платы,
SMS и т.д.) предоставляет доступ к создаваемому пользователями каталогу ссылок на торрент-файлы, которые содержат только списки хеш-сумм.
Убедительная просьба с жалобами обращаться напрямую к пользователю, разместившему торрент файл.

Вверх